[ Сегодня идет свободное скачивание без начисления Download ]


Статистика раздачи
Нет
 
   
 
Top  
 
 
-Пуля для генерала / A Bullet for the General (1966) BDRip-«Like the Bandit... Like the Gringo... A bullet doesn't care who it kills!»
Русское название: Пуля для генерала
Оригинальное название: A Bullet for the General
Год выпуска: 1966
Жанр: Вестерн
Описание фильма:
1910 год. Мексика. Революция, анархия, террор и бандитизм. Революционная банда "Чунчо-барабанщика" (Джан-Мария Волонте) совершает дерзкое ограбление поезда, во время которого в шайку вливается элегантный гринго - белобрысый американец. Никто и не догадывается, что у него есть тайное задание арестовать или убить генерала Элиаса - одного из вождей революции. Захватив военное снаряжение правительственных войск президента Каррансы и продавая его революционной армии генерала Элиаса, Чунчо наивно полагает, что спасает революцию и потому имеет моральное право присваивать полученные деньги. Столь же наивно, не задумываясь, он принимает молодого лощеного франта Билла Тейта (Лу Кастель), шпиона и убийцу, за друга Мексики, а потому и за своего друга. Дальнейший ход событий заставляет Чунчо понять ошибку. Медленно, очень медленно приходит к нему прозрение... Так возникает один из самых ударных кинематографических мужских дуэтов. Много будет пролито крови и загублено невинных душ на пути этой странной парочки. Добро и зло, любовь и ненависть, черное и белое, жизнь и смерть - все сплелось в этом чудовищном клубке, называемом "мексиканская революция 1910 года".
Режиссер: Дамиано Дамиани
Актеры: Джан Мария Волонте, Клаус Кински, Мартин Бесвик, Лу Кастель, Хайме Фернандес, Андреа Кекки, Спартако Конверси, Хоакин Парра, Альдо Самбрелл, Хосе Мануэль Мартин, Сантьяго Сантос, Валентино Макки, Сальваторе Боргезе, Карла Гравина, Гай Херон, Ричард МакНамара
Продолжительность: 01:57:48
Перевод: Дублированный
Язык субтитров: Русские, английские
Вид субтитров: Вшитые

Дата мировой премьеры: 7 декабря 1966
Дата выхода DVD релиза: 9 августа 2012, «Cinema Prestige»

Видеокодек: MPEG-4 AVC/H.264
Битрейт видео: ~6750 Кбит/с
Размер кадра: 1280x544
Качество видео: BDRip 720p
Аудио 1: AC3 Русский 2.0 / 48 kHz / 128 kbps / 16-bit Дублированный
Аудио 2: DTS Английский 2.0 / 48 kHz /1509 kbps / 24-bit Оригинал
Сэмпл: Ссылка

MediaInfo

Общее
Уникальный идентификатор : 231796101670003769247628004596620778582 (0xAE624E29710D995AA50BE3B60600DC56)
Полное имя : C:\Xvid4PSP\Пуля для генерала (Золотая пуля) 1966.BDRip.720p.mkv
Формат : Matroska
Версия формата : Version 4 / Version 2
Размер файла : 6,96 Гбайт
Продолжительность : 1 ч. 57 м.
Общий поток : 8453 Кбит/сек
Название фильма : El chuncho, quien sabe? (1966)
Дата кодирования : UTC 2013-06-11 21:07:19
Программа кодирования : mkvmerge v6.2.0 ('Promised Land') built on Apr 28 2013 12:22:01
Библиотека кодирования : libebml v1.3.0 + libmatroska v1.4.0
Видео
Идентификатор : 1
Формат : AVC
Формат/Информация : Advanced Video Codec
Профиль формата : [email protected]
Параметр CABAC формата : Да
Параметр ReFrames формата : 12 кадров
Идентификатор кодека : V_MPEG4/ISO/AVC
Продолжительность : 1 ч. 57 м.
Битрейт : 6750 Кбит/сек
Ширина : 1280 пикселей
Высота : 544 пикселя
Соотношение сторон : 2,35:1
Режим частоты кадров : Постоянный
Частота кадров : 23,976 кадра/сек
Цветовое пространство : YUV
Субдискретизация насыщенности : 4:2:0
Битовая глубина : 8 бит
Тип развёртки : Прогрессивная
Бит/(Пиксели*Кадры) : 0.404
Размер потока : 5,42 Гбайт (78%)
Библиотека кодирования : x264 core 129 r2230 1cffe9f
Настройки программы : cabac=1 / ref=12 / deblock=1:-2:-2 / analyse=0x3:0x133 / me=umh / subme=10 / psy=1 / psy_rd=1.00:0.00 / mixed_ref=1 / me_range=32 / chroma_me=1 / trellis=2 / 8x8dct=1 / cqm=0 / deadzone=21,11 / fast_pskip=0 / chroma_qp_offset=-2 / threads=6 / lookahead_threads=1 / sliced_threads=0 / nr=0 / decimate=0 / interlaced=0 / bluray_compat=0 / constrained_intra=0 / bframes=6 / b_pyramid=2 / b_adapt=2 / b_bias=0 / direct=3 / weightb=1 / open_gop=0 / weightp=2 / keyint=240 / keyint_min=24 / scenecut=40 / intra_refresh=0 / rc_lookahead=60 / rc=2pass / mbtree=0 / bitrate=6750 / ratetol=1.0 / qcomp=0.70 / qpmin=0 / qpmax=56 / qpstep=4 / cplxblur=20.0 / qblur=0.5 / vbv_maxrate=50000 / vbv_bufsize=62500 / nal_hrd=none / ip_ratio=1.30 / pb_ratio=1.20 / aq=1:0.90
Язык : English
Default : Да
Forced : Нет
Аудио #1
Идентификатор : 2
Формат : AC-3
Формат/Информация : Audio Coding 3
Профиль формата : Dolby Digital
Расширение режима : CM (complete main)
Параметр Endianness формата : Big
Идентификатор кодека : A_AC3
Продолжительность : 1 ч. 57 м.
Вид битрейта : Постоянный
Битрейт : 192 Кбит/сек
Каналы : 2 канала
Расположение каналов : Front: L R
Частота : 48,0 КГц
Битовая глубина : 16 бит
Метод сжатия : С потерями
Размер потока : 162 Мбайт (2%)
Заголовок : AC3 2.0ch 192kbps - дубляж (+ ПМ)
Язык : Russian
Default : Да
Forced : Нет
Аудио #2
Идентификатор : 3
Формат : DTS
Формат/Информация : Digital Theater Systems
Режим : 16
Параметр Endianness формата : Big
Идентификатор кодека : A_DTS
Продолжительность : 1 ч. 57 м.
Вид битрейта : Постоянный
Битрейт : 1509 Кбит/сек
Каналы : 2 канала
Расположение каналов : Front: L R
Частота : 48,0 КГц
Битовая глубина : 24 бит
Метод сжатия : С потерями
Размер потока : 1,24 Гбайт (18%)
Заголовок : DTS 2.0ch 24-bit 1509kbps
Язык : English
Default : Нет
Forced : Нет
Текст #1
Идентификатор : 4
Формат : UTF-8
Идентификатор кодека : S_TEXT/UTF8
Идентификатор кодека/Информация : UTF-8 Plain Text
Язык : Russian
Default : Нет
Forced : Нет
Текст #2
Идентификатор : 5
Формат : UTF-8
Идентификатор кодека : S_TEXT/UTF8
Идентификатор кодека/Информация : UTF-8 Plain Text
Язык : English
Default : Нет
Forced : Нет
Меню
00:00:00.000 : en:1: FIRING SQUAD
00:03:37.000 : en:2: RAILROAD AMBUSH
00:12:35.000 : en:3: BANDITS TAKE THE TRAIN
00:19:43.000 : en:4: GRINGO
00:24:11.000 : en:5: "I THINK SHE LIKES YOU"
00:27:12.000 : en:6: ROBBING THE STOKADE
00:31:05.000 : en:7: BORDELLO BOMBSHELL
00:37:11.000 : en:8: WRAITH OF GOD
00:40:09.000 : en:9: ARRIVAL IN SAN MIGUEL
00:42:24.000 : en:10: DON FELIPE AND HIS WIFE
00:48:43.000 : en:11: NINO SPEAKS OUT
00:53:32.000 : en:12: SAN MIGUEL'S NEW LEADER
00:57:28.000 : en:13: ANGELICA AND THE GRINGO
01:02:10.000 : en:14: MAN OF THE PEOPLE
01:10:43.000 : en:15: THE RETURN
01:17:48.000 : en:16: "IT'S AN ATTACK!"
01:22:36.000 : en:17: LOSING THE ANGELICA
01:25:59.000 : en:18: MALARIA
01:32:06.000 : en:19: REBEL CAMP
01:38:04.000 : en:20: LEADER OF THE REVOLUTION
01:42:41.000 : en:21: A BULLET FOR THE GENERAL
01:47:58.000 : en:22: THE REWARD
01:51:06.000 : en:23: CHANGE OF HEART
Скриншоты:

Время раздачи: 24/7

[Цитировать]



Показать сообщения:    

Текущее время: 06-Дек 15:16

Часовой пояс: UTC + 3


Вы не можете начинать темы
Вы не можете отвечать на сообщения
Вы не можете редактировать свои сообщения
Вы не можете удалять свои сообщения
Вы не можете голосовать в опросах
Вы не можете прикреплять файлы к сообщениям
Вы не можете скачивать файлы

!ВНИМАНИЕ!
Сайт не предоставляет электронные версии произведений, а занимается лишь коллекционированием и каталогизацией ссылок, присылаемых и публикуемых на форуме нашими читателями. Если вы являетесь правообладателем какого-либо представленного материала и не желаете, чтобы ссылка на него находилась в нашем каталоге, свяжитесь с нами, и мы незамедлительно удалим ее. Файлы для обмена на трекере предоставлены пользователями сайта, и администрация не несет ответственности за их содержание. Просьба не заливать файлы, защищенные авторскими правами, а также файлы нелегального содержания!