[ Сегодня идет свободное скачивание без начисления Download ]


Статистика раздачи
Нет
 
   
 
 
 
-Безумный Макс: Трилогия / Mad Max: Trilogy (1979, 1981, 1985) BDRip--

Название: Безумный Макс: Трилогия
Оригинальное название: Mad Max: Trilogy
Год выхода: 1979/1981/1985
Жанр: Фантастика, Боевик, Триллер
Режиссер: Джордж Миллер / George Miller
Производство: Австралия
Продолжительность: 01:33:11 | 01:35:30 | 01:46:58
Качество видео: BDRip 1080p
--

Безумный макс / Mad Max (1979)

Безумный макс / Mad Max (1979) BDRip-
Русское название: Безумный макс
Оригинальное название: Mad Max
Год выпуска: 1979
Производство: Австралия
Жанр: Фантастика, Боевик, Триллер--Описание фильма:
В недалёком будущем, после крупной катастрофы, поразившей нашу урбанистическую цивилизацию, вся жизнь сосредоточилась вдоль бесчисленных магистралей…
Дорога стала способом существования. И дала многим возможность проявлять свои самые жестокие инстинкты. Банда байкеров на мощных мотоциклах, желая рассчитаться за своего убитого товарища, преследует молодого полицейского Макса. В яростной схватке убит другой полицейский, Гус, подобная участь может ждать Макса и его семью.
Ему предстоит самая главная и сложная задача — сохранить жену, сына и выжить самому. В роли Макса — Мел Гибсон, тогда ещё мало известный широкой публике.--Режиссер: Джордж Миллер
Актеры: Мел Гибсон, Хью Кийс-Бирн, Тим Бёрнс, Джоанна Самюел, Стив Бисли, Лиза Олденховен, Дэвид Брэкс, Бертран Кадар, Дэвид Камерон, Стефан Кларк, Джерри Дэй, Рег Эванс, Робина Чаффей
Продолжительность: 01:33:11
Перевод: Профессиональный (полное дублирование), Профессиональный (многоголосый закадровый), Авторский (одноголосый закадровый)
Язык субтитров: Русский, английский
Вид субтитров: Вшитые отключаемые

Дата мировой премьеры: 12 апреля 1979
Дата выхода DVD релиза: 7 апреля 2011, «ВС трейд»
Видеокодек: MPEG-4 AVC/H.264
Битрейт видео: ~8570 Кбит/сек
Размер кадра: 1920x824
Качество видео: BDRip 1080p
Аудиокодек: AC3
Аудио #1: Русский ( AC3 / 5.1 / 48 kHz / 448 kbps ) - Профессиональный (дублированный) R5
Аудио #2: Русский ( AC3 / 5.1 / 48 kHz / 448 kbps ) - Профессиональный (многоголосый) Киномания
Аудио #3: Русский ( AC3 / 5.1 / 48 kHz / 448 kbps ) - Авторский (одноголосый) А.Михалёв
Аудио #4: Русский ( AC3 / 5.1 / 48 kHz / 448 kbps ) - Авторский (одноголосый) Л.Володарский
Аудио #5: Английский ( AC3 / 5.1 / 48 kHz / 448 kbps )
-

MediaInfo:

Общее
Уникальный идентификатор : 236186472009441032514469962744366786143 (0xB1AFDC21C3E3F5609047297AAF6E665F)
Полное имя : Безумный макс _ Mad Max (1979) BDRip 1080p.mkv
Формат : Matroska
Версия формата : Version 2
Размер файла : 7,04 Гбайт
Продолжительность : 1 ч. 33 м.
Общий поток : 10,8 Мбит/сек
Название фильма : Bezumniy.Maks.1979.x264.BDRip.1080p.Troyanec27
Дата кодирования : UTC 2013-06-12 07:58:17
Программа кодирования : mkvmerge v4.0.0 ('The Stars were mine') сборка от Jun 6 2010 16:18:42
Библиотека кодирования : libebml v1.0.0 + libmatroska v1.0.0
Видео
Идентификатор : 1
Формат : AVC
Формат/Информация : Advanced Video Codec
Профиль формата : High@L4.1
Параметр CABAC формата : Да
Параметр ReFrames формата : 5 кадров
Идентификатор кодека : V_MPEG4/ISO/AVC
Продолжительность : 1 ч. 33 м.
Битрейт : 8570 Кбит/сек
Ширина : 1920 пикселей
Высота : 824 пикселя
Соотношение сторон : 2,35:1
Режим частоты кадров : Постоянный
Частота кадров : 23,976 кадра/сек
Цветовое пространство : YUV
Субдискретизация насыщенности : 4:2:0
Битовая глубина : 8 бит
Тип развёртки : Прогрессивная
Бит/(Пиксели*Кадры) : 0.226
Размер потока : 5,44 Гбайт (77%)
Библиотека кодирования : x264 core 105 r1732 2b04482
Настройки программы : cabac=1 / ref=5 / deblock=1:0:0 / analyse=0x3:0x133 / me=umh / subme=7 / psy=1 / psy_rd=1.00:0.00 / mixed_ref=1 / me_range=16 / chroma_me=1 / trellis=1 / 8x8dct=1 / cqm=0 / deadzone=21,11 / fast_pskip=0 / chroma_qp_offset=-2 / threads=6 / sliced_threads=0 / nr=0 / decimate=1 / interlaced=0 / constrained_intra=0 / bframes=3 / b_pyramid=2 / b_adapt=1 / b_bias=0 / direct=1 / weightb=1 / open_gop=0 / weightp=2 / keyint=250 / keyint_min=23 / scenecut=40 / intra_refresh=0 / rc_lookahead=40 / rc=2pass / mbtree=1 / bitrate=8570 / ratetol=1.0 / qcomp=0.60 / qpmin=10 / qpmax=51 / qpstep=4 / cplxblur=20.0 / qblur=0.5 / ip_ratio=1.40 / aq=1:1.00
Язык : English
Default : Нет
Forced : Нет
Аудио #1
Идентификатор : 2
Формат : AC-3
Формат/Информация : Audio Coding 3
Расширение режима : CM (complete main)
Параметр Endianness формата : Big
Идентификатор кодека : A_AC3
Продолжительность : 1 ч. 33 м.
Вид битрейта : Постоянный
Битрейт : 448 Кбит/сек
Каналы : 6 каналов
Расположение каналов : Front: L C R, Side: L R, LFE
Частота : 48,0 КГц
Битовая глубина : 16 бит
Метод сжатия : С потерями
Размер потока : 299 Мбайт (4%)
Заголовок : AC3 5.1 @ 448 Kbps @ Профессиональный дублированный (R5)
Язык : Russian
Default : Да
Forced : Да
Аудио #2
Идентификатор : 3
Формат : AC-3
Формат/Информация : Audio Coding 3
Расширение режима : CM (complete main)
Параметр Endianness формата : Big
Идентификатор кодека : A_AC3
Продолжительность : 1 ч. 33 м.
Вид битрейта : Постоянный
Битрейт : 448 Кбит/сек
Каналы : 6 каналов
Расположение каналов : Front: L C R, Side: L R, LFE
Частота : 48,0 КГц
Битовая глубина : 16 бит
Метод сжатия : С потерями
Задержка видео : 15 с.
Размер потока : 299 Мбайт (4%)
Заголовок : AC3 5.1 @ 448 Kbps @ Профессиональный многоголосый (Киномания)
Язык : Russian
Default : Нет
Forced : Нет
Аудио #3
Идентификатор : 4
Формат : AC-3
Формат/Информация : Audio Coding 3
Расширение режима : CM (complete main)
Параметр Endianness формата : Big
Идентификатор кодека : A_AC3
Продолжительность : 1 ч. 33 м.
Вид битрейта : Постоянный
Битрейт : 448 Кбит/сек
Каналы : 6 каналов
Расположение каналов : Front: L C R, Side: L R, LFE
Частота : 48,0 КГц
Битовая глубина : 16 бит
Метод сжатия : С потерями
Задержка видео : 15 с.
Размер потока : 299 Мбайт (4%)
Заголовок : AC3 5.1 @ 448 Kbps @ Авторский одноголосый (Михалёв)
Язык : Russian
Default : Нет
Forced : Нет
Аудио #4
Идентификатор : 5
Формат : AC-3
Формат/Информация : Audio Coding 3
Расширение режима : CM (complete main)
Параметр Endianness формата : Big
Идентификатор кодека : A_AC3
Продолжительность : 1 ч. 33 м.
Вид битрейта : Постоянный
Битрейт : 448 Кбит/сек
Каналы : 6 каналов
Расположение каналов : Front: L C R, Side: L R, LFE
Частота : 48,0 КГц
Битовая глубина : 16 бит
Метод сжатия : С потерями
Размер потока : 299 Мбайт (4%)
Заголовок : AC3 5.1 @ 448 Kbps @ Авторский одноголосый (Володарский)
Язык : Russian
Default : Нет
Forced : Нет
Аудио #5
Идентификатор : 6
Формат : AC-3
Формат/Информация : Audio Coding 3
Расширение режима : CM (complete main)
Параметр Endianness формата : Big
Идентификатор кодека : A_AC3
Продолжительность : 1 ч. 33 м.
Вид битрейта : Постоянный
Битрейт : 448 Кбит/сек
Каналы : 6 каналов
Расположение каналов : Front: L C R, Side: L R, LFE
Частота : 48,0 КГц
Битовая глубина : 16 бит
Метод сжатия : С потерями
Размер потока : 299 Мбайт (4%)
Заголовок : AC3 5.1 @ 448 Kbps @
Язык : English
Default : Нет
Forced : Нет
Текст #1
Идентификатор : 7
Формат : PGS
Идентификатор кодека : S_HDMV/PGS
Идентификатор кодека/Информация : The same subtitle format used on BDs/HD-DVDs
Язык : Russian
Default : Нет
Forced : Нет
Текст #2
Идентификатор : 8
Формат : PGS
Идентификатор кодека : S_HDMV/PGS
Идентификатор кодека/Информация : The same subtitle format used on BDs/HD-DVDs
Язык : English
Default : Нет
Forced : Нет
-Скриншоты:

Безумный Макс 2: Воин дороги / Mad Max 2: The Road Warrior (1981)

Безумный Макс 2: Воин дороги / Mad Max 2: The Road Warrior (1981) BDRip -
Русское название: Безумный Макс 2: Воин дороги
Оригинальное название: Mad Max 2: The Road Warrior
Год выпуска: 1981
Производство: Австралия
Жанр: Фантастика, Боевик, Триллер--Описание фильма:
Катастрофа, пострашнее ядерной войны, постигла нашу цивилизацию. Страшный энергетический кризис парализовал города, пути сообщения - одним словом, все. За топливо теперь дерутся любыми средствами. Потому, что там, где бензин, - там жизнь… Одинокий водитель Макс как раз и бороздит пустоши далекой Австралии в поисках горючего. Повсюду брошенные жилища, машины, разный скарб. Наконец Макс находит станцию, превращенную в лагерь со складами горючего. Исхудавшие, измученные люди как могут охраняют то, что им принадлежит. И вот, в довершение всех бед, на лагерь нападают враги, свирепые вояки под предводительством некоего Гумундуса, садиста и душегуба. И тогда Макс вступает в схватку…--Режиссер: Джордж Миллер
Актеры: Мэл Гибсон, Брюс Спенс, Майкл Престон, Макс Фиппс, Вернон Уэллс, Кьелль Нилссон, Эмиль Минти, Вирджиния Хей, Уильям Заппа, Арки Уайтели
Продолжительность: 01:35:30
Перевод: Профессиональный (полное дублирование), Профессиональный (многоголосый закадровый), Авторский (одноголосый закадровый)
Язык субтитров: Русский, английский
Вид субтитров: Вшитые отключаемые

Дата мировой премьеры: 24 декабря 1981
Дата выхода DVD релиза: 7 апреля 2011, «ВС трейд»
Видеокодек: MPEG-4 AVC/H.264
Битрейт видео: ~11.3 Mбит/с
Размер кадра: 1908x796
Качество видео: BDRip 1080p
Аудиокодек: AC3
Аудио #1: Русский ( AC3 / 5.1 / 48 kHz / 384 kbps ) - Профессиональный (дублированный) R5
Аудио #2: Русский ( AC3 / 5.1 / 48 kHz / 384 kbps ) - Профессиональный (многоголосый) Киномания
Аудио #3: Русский ( AC3 / 5.1 / 48 kHz / 448 kbps ) - Авторский (одноголосый) Пучков-Goblin
Аудио #4: Русский ( AC3 / 5.1 / 48 kHz / 448 kbps ) - Авторский (одноголосый) А.Михалёв
Аудио #5: Английский ( AC3 / 5.1 / 48 kHz / 640 kbps )
-

MediaInfo:

Общее
Уникальный идентификатор : 177541708456958466612917292808491139284 (0x85914A0D90C1F552A19DA0672D7280D4)
Полное имя : Безумный Макс 2 Воин дороги _ Mad Max 2 The Road Warrior (1981) BDRip [1080p].mkv
Формат : Matroska
Версия формата : Version 2
Размер файла : 9,06 Гбайт
Продолжительность : 1 ч. 35 м.
Общий поток : 13,6 Мбит/сек
Дата кодирования : UTC 2013-06-12 07:36:48
Программа кодирования : mkvmerge v4.0.0 ('The Stars were mine') сборка от Jun 6 2010 16:18:42
Библиотека кодирования : libebml v1.0.0 + libmatroska v1.0.0
Видео
Идентификатор : 1
Формат : AVC
Формат/Информация : Advanced Video Codec
Профиль формата : High@L4.1
Параметр CABAC формата : Да
Параметр ReFrames формата : 5 кадров
Идентификатор кодека : V_MPEG4/ISO/AVC
Продолжительность : 1 ч. 35 м.
Битрейт : 11,3 Мбит/сек
Ширина : 1908 пикселей
Высота : 796 пикселей
Соотношение сторон : 2,40:1
Режим частоты кадров : Постоянный
Частота кадров : 23,976 кадра/сек
Цветовое пространство : YUV
Субдискретизация насыщенности : 4:2:0
Битовая глубина : 8 бит
Тип развёртки : Прогрессивная
Бит/(Пиксели*Кадры) : 0.309
Размер потока : 7,34 Гбайт (81%)
Заголовок : Release for HDClub
Библиотека кодирования : x264 core 59 r839M 27c3071
Настройки программы : cabac=1 / ref=5 / deblock=1:-3:-3 / analyse=0x3:0x113 / me=umh / subme=7 / me-prepass=0 / brdo=1 / mixed_ref=1 / me_range=16 / chroma_me=1 / trellis=0 / 8x8dct=1 / cqm=2 / deadzone=6,4 / chroma_qp_offset=0 / threads=6 / nr=0 / decimate=1 / mbaff=0 / fgo=10 / bframes=3 / b_pyramid=1 / b_adapt=1 / b_bias=0 / direct=1 / wpredb=1 / bime=1 / keyint=250 / keyint_min=25 / scenecut=40(pre) / rc=2pass / bitrate=11270 / ratetol=1.0 / rceq='blurCplx^(1-qComp)' / qcomp=1.00 / qpmin=10 / qpmax=51 / qpstep=4 / cplxblur=20.0 / qblur=0.5 / ip_ratio=1.40 / pb_ratio=1.15 / aq=2:1.00
Язык : English
Default : Да
Forced : Нет
Аудио #1
Идентификатор : 2
Формат : AC-3
Формат/Информация : Audio Coding 3
Расширение режима : CM (complete main)
Параметр Endianness формата : Big
Идентификатор кодека : A_AC3
Продолжительность : 1 ч. 35 м.
Вид битрейта : Постоянный
Битрейт : 384 Кбит/сек
Каналы : 6 каналов
Расположение каналов : Front: L C R, Side: L R, LFE
Частота : 48,0 КГц
Битовая глубина : 16 бит
Метод сжатия : С потерями
Размер потока : 263 Мбайт (3%)
Заголовок : AC3 5.1 384k Dubl
Язык : Russian
Default : Да
Forced : Нет
Аудио #2
Идентификатор : 3
Формат : AC-3
Формат/Информация : Audio Coding 3
Расширение режима : CM (complete main)
Параметр Endianness формата : Big
Идентификатор кодека : A_AC3
Продолжительность : 1 ч. 35 м.
Вид битрейта : Постоянный
Битрейт : 384 Кбит/сек
Каналы : 6 каналов
Расположение каналов : Front: L C R, Side: L R, LFE
Частота : 48,0 КГц
Битовая глубина : 16 бит
Метод сжатия : С потерями
Размер потока : 263 Мбайт (3%)
Заголовок : AC3 5.1 384k Mnogogoloska
Язык : Russian
Default : Нет
Forced : Нет
Аудио #3
Идентификатор : 4
Формат : AC-3
Формат/Информация : Audio Coding 3
Расширение режима : CM (complete main)
Параметр Endianness формата : Big
Идентификатор кодека : A_AC3
Продолжительность : 1 ч. 35 м.
Вид битрейта : Постоянный
Битрейт : 448 Кбит/сек
Каналы : 6 каналов
Расположение каналов : Front: L C R, Side: L R, LFE
Частота : 48,0 КГц
Битовая глубина : 16 бит
Метод сжатия : С потерями
Размер потока : 306 Мбайт (3%)
Заголовок : AC3 5.1 448k Goblin
Язык : Russian
Default : Нет
Forced : Нет
Аудио #4
Идентификатор : 5
Формат : AC-3
Формат/Информация : Audio Coding 3
Расширение режима : CM (complete main)
Параметр Endianness формата : Big
Идентификатор кодека : A_AC3
Продолжительность : 1 ч. 35 м.
Вид битрейта : Постоянный
Битрейт : 448 Кбит/сек
Каналы : 6 каналов
Расположение каналов : Front: L C R, Side: L R, LFE
Частота : 48,0 КГц
Битовая глубина : 16 бит
Метод сжатия : С потерями
Размер потока : 306 Мбайт (3%)
Заголовок : AC3 5.1 448k Mihalev
Язык : Russian
Default : Нет
Forced : Нет
Аудио #5
Идентификатор : 6
Формат : AC-3
Формат/Информация : Audio Coding 3
Расширение режима : CM (complete main)
Параметр Endianness формата : Big
Идентификатор кодека : A_AC3
Продолжительность : 1 ч. 35 м.
Вид битрейта : Постоянный
Битрейт : 640 Кбит/сек
Каналы : 6 каналов
Расположение каналов : Front: L C R, Side: L R, LFE
Частота : 48,0 КГц
Битовая глубина : 16 бит
Метод сжатия : С потерями
Размер потока : 438 Мбайт (5%)
Заголовок : AC3 5.1 @640k
Язык : English
Default : Нет
Forced : Нет
Текст #1
Идентификатор : 7
Формат : UTF-8
Идентификатор кодека : S_TEXT/UTF8
Идентификатор кодека/Информация : UTF-8 Plain Text
Язык : Russian
Default : Да
Forced : Нет
Текст #2
Идентификатор : 8
Формат : UTF-8
Идентификатор кодека : S_TEXT/UTF8
Идентификатор кодека/Информация : UTF-8 Plain Text
Язык : English
Default : Нет
Forced : Нет
-Скриншоты:

Безумный Макс 3. Под куполом грома / Mad Max 3 Beyond Thunderdome (1985)

Безумный Макс 3. Под куполом грома / Mad Max 3 Beyond Thunderdome (1985) BDRip -
Русское название: Безумный Макс 3. Под куполом грома
Оригинальное название: Mad Max 3 Beyond Thunderdome
Год выпуска: 1985
Производство: Австралия
Жанр: Фантастика, Боевик, Триллер--Описание фильма:
В городе Батертауне правит коварная властительница Энтити. Для укрепления своей власти она пытается использовать Макса, непревзойденного мастера дорожных схваток. Но теперь завораживающую череду автомобильных разборок под испепеляющим солнцем начинают сменять невероятные рукопашные бои.--Режиссер: Джордж Миллер
Актеры: Мэл Гибсон, Брюс Спенсер, Эдам Кокберн, Тина Тернер, Фрэнк Тринг, Анджело Росситто, Пол Ларссон, Энгри Андерсон, Роберт Грабб
Продолжительность: 01:46:58
Перевод: Профессиональный (полное дублирование), Профессиональный (многоголосый закадровый), Авторский (одноголосый закадровый)
Субтитры: Отсутствуют

Дата мировой премьеры: 10 июля 1985
Дата выхода DVD релиза: 7 апреля 2011, «ВС трейд»
Видеокодек: MPEG-4 AVC/H.264
Битрейт видео: ~8925 Кбит/сек
Размер кадра: 1920x800
Качество видео: BDRip 1080p
Аудиокодек: AC3
Аудио #1: Русский ( AC3 / 5.1 / 48 kHz / 448 kbps ) - Профессиональный (дублированный) R5
Аудио #2: Русский ( AC3 / 5.1 / 48 kHz / 448 kbps ) - Профессиональный (многоголосый) Киномания
Аудио #3: Русский ( AC3 / 5.1 / 48 kHz / 448 kbps ) - Авторский (одноголосый) Гаврилов
Аудио #4: Русский ( AC3 / 5.1 / 48 kHz / 384 kbps ) - Авторский (одноголосый) Живов
Аудио #5: Английский ( AC3 / 5.1 / 48 kHz / 384 kbps )
-

MediaInfo:

Общее
Уникальный идентификатор : 175501637386320012802180673243300918691 (0x840862C894DB87F4B0E0D0B6AE2675A3)
Полное имя : Безумный Макс 3. Под куполом грома _ Mad Max 3 Beyond Thunderdome (1985) BDRip [1080p].mkv
Формат : Matroska
Версия формата : Version 2
Размер файла : 8,25 Гбайт
Продолжительность : 1 ч. 46 м.
Общий поток : 11,0 Мбит/сек
Дата кодирования : UTC 2013-06-12 10:42:03
Программа кодирования : mkvmerge v4.0.0 ('The Stars were mine') сборка от Jun 6 2010 16:18:42
Библиотека кодирования : libebml v1.0.0 + libmatroska v1.0.0
Видео
Идентификатор : 1
Формат : AVC
Формат/Информация : Advanced Video Codec
Профиль формата : High@L4.1
Параметр CABAC формата : Да
Параметр ReFrames формата : 5 кадров
Идентификатор кодека : V_MPEG4/ISO/AVC
Продолжительность : 1 ч. 46 м.
Битрейт : 8925 Кбит/сек
Ширина : 1920 пикселей
Высота : 800 пикселей
Соотношение сторон : 2,40:1
Режим частоты кадров : Постоянный
Частота кадров : 23,976 кадра/сек
Цветовое пространство : YUV
Субдискретизация насыщенности : 4:2:0
Битовая глубина : 8 бит
Тип развёртки : Прогрессивная
Бит/(Пиксели*Кадры) : 0.242
Размер потока : 6,50 Гбайт (79%)
Библиотека кодирования : x264 core 133 r2334 a3ac64b
Настройки программы : cabac=1 / ref=5 / deblock=1:0:0 / analyse=0x3:0x133 / me=umh / subme=7 / psy=1 / psy_rd=1.00:0.00 / mixed_ref=1 / me_range=16 / chroma_me=1 / trellis=1 / 8x8dct=1 / cqm=0 / deadzone=21,11 / fast_pskip=0 / chroma_qp_offset=-2 / threads=12 / lookahead_threads=2 / sliced_threads=0 / nr=0 / decimate=1 / interlaced=0 / bluray_compat=0 / constrained_intra=0 / bframes=3 / b_pyramid=2 / b_adapt=1 / b_bias=0 / direct=3 / weightb=1 / open_gop=0 / weightp=2 / keyint=240 / keyint_min=23 / scenecut=40 / intra_refresh=0 / rc_lookahead=40 / rc=2pass / mbtree=1 / bitrate=8925 / ratetol=1.0 / qcomp=0.60 / qpmin=0 / qpmax=69 / qpstep=4 / cplxblur=20.0 / qblur=0.5 / vbv_maxrate=50000 / vbv_bufsize=62500 / nal_hrd=none / ip_ratio=1.40 / aq=1:1.00
Язык : French
Default : Нет
Forced : Нет
Аудио #1
Идентификатор : 2
Формат : AC-3
Формат/Информация : Audio Coding 3
Расширение режима : CM (complete main)
Параметр Endianness формата : Big
Идентификатор кодека : A_AC3
Продолжительность : 1 ч. 46 м.
Вид битрейта : Постоянный
Битрейт : 448 Кбит/сек
Каналы : 6 каналов
Расположение каналов : Front: L C R, Side: L R, LFE
Частота : 48,0 КГц
Битовая глубина : 16 бит
Метод сжатия : С потерями
Задержка видео : 2 с. 424 мс.
Размер потока : 343 Мбайт (4%)
Заголовок : AC3 5.1 @ 448 Kbps @ Профессиональный дублированный (R5)
Язык : Russian
Default : Нет
Forced : Нет
Аудио #2
Идентификатор : 3
Формат : AC-3
Формат/Информация : Audio Coding 3
Расширение режима : CM (complete main)
Параметр Endianness формата : Big
Идентификатор кодека : A_AC3
Продолжительность : 1 ч. 46 м.
Вид битрейта : Постоянный
Битрейт : 448 Кбит/сек
Каналы : 6 каналов
Расположение каналов : Front: L C R, Side: L R, LFE
Частота : 48,0 КГц
Битовая глубина : 16 бит
Метод сжатия : С потерями
Задержка видео : 2 с. 424 мс.
Размер потока : 343 Мбайт (4%)
Заголовок : AC3 5.1 @ 448 Kbps @ Профессиональный многоголосый (Киномания)
Язык : Russian
Default : Нет
Forced : Нет
Аудио #3
Идентификатор : 4
Формат : AC-3
Формат/Информация : Audio Coding 3
Расширение режима : CM (complete main)
Параметр Endianness формата : Big
Идентификатор кодека : A_AC3
Продолжительность : 1 ч. 46 м.
Вид битрейта : Постоянный
Битрейт : 448 Кбит/сек
Каналы : 6 каналов
Расположение каналов : Front: L C R, Side: L R, LFE
Частота : 48,0 КГц
Битовая глубина : 16 бит
Метод сжатия : С потерями
Задержка видео : 2 с. 424 мс.
Размер потока : 343 Мбайт (4%)
Заголовок : AC3 5.1 @ 448 Kbps @ Авторский одноголосый (Гаврилов)
Язык : Russian
Default : Нет
Forced : Нет
Аудио #4
Идентификатор : 5
Формат : AC-3
Формат/Информация : Audio Coding 3
Расширение режима : CM (complete main)
Параметр Endianness формата : Big
Идентификатор кодека : A_AC3
Продолжительность : 1 ч. 46 м.
Вид битрейта : Постоянный
Битрейт : 384 Кбит/сек
Каналы : 6 каналов
Расположение каналов : Front: L C R, Side: L R, LFE
Частота : 48,0 КГц
Битовая глубина : 16 бит
Метод сжатия : С потерями
Задержка видео : 10 с.
Размер потока : 294 Мбайт (3%)
Заголовок : AC3 5.1 @ 384 Kbps @ Авторский одноголосый (Живов)
Язык : Russian
Default : Нет
Forced : Нет
Аудио #5
Идентификатор : 6
Формат : AC-3
Формат/Информация : Audio Coding 3
Расширение режима : CM (complete main)
Параметр Endianness формата : Big
Идентификатор кодека : A_AC3
Продолжительность : 1 ч. 46 м.
Вид битрейта : Постоянный
Битрейт : 384 Кбит/сек
Каналы : 6 каналов
Расположение каналов : Front: L C R, Side: L R, LFE
Частота : 48,0 КГц
Битовая глубина : 16 бит
Метод сжатия : С потерями
Задержка видео : 2 с. 400 мс.
Размер потока : 294 Мбайт (3%)
Заголовок : AC3 5.1 @ 384 Kbps @
Язык : English
Default : Нет
Forced : Нет
-Скриншоты:
-Время раздачи: с 10:00 до 23:00 ежедневно

[Цитировать]



Показать сообщения:    

Текущее время: 09-Дек 20:33

Часовой пояс: UTC + 3


Вы не можете начинать темы
Вы не можете отвечать на сообщения
Вы не можете редактировать свои сообщения
Вы не можете удалять свои сообщения
Вы не можете голосовать в опросах
Вы не можете прикреплять файлы к сообщениям
Вы не можете скачивать файлы

!ВНИМАНИЕ!
Сайт не предоставляет электронные версии произведений, а занимается лишь коллекционированием и каталогизацией ссылок, присылаемых и публикуемых на форуме нашими читателями. Если вы являетесь правообладателем какого-либо представленного материала и не желаете, чтобы ссылка на него находилась в нашем каталоге, свяжитесь с нами, и мы незамедлительно удалим ее. Файлы для обмена на трекере предоставлены пользователями сайта, и администрация не несет ответственности за их содержание. Просьба не заливать файлы, защищенные авторскими правами, а также файлы нелегального содержания!