[ Сегодня идет свободное скачивание без начисления Download ]


Статистика раздачи
Нет
 
   
 
Top  
 
 
- Люди ХЭ. Выпуск №19 / Александр Ревва (2013.06.13) SATRip - Режиссер / Телекомпания: СТС
Русское название: Люди ХЭ
Год выпуска: 2013
Жанр: Юмор
Описание:
«Люди Хэ» — это пародийное шоу о необычных способностях, казалось бы, обычных людей. Проект преследует две цели: во-первых, заставить поверить в паранормальные явления тех, кто относится к ним скептически; во-вторых, заставить улыбнуться тех, кто в существовании паранормального убежден.
Вокруг нас много людей, обладающих настоящими экстрасенсорными способностями. Старушка-ворожея, девочка с плюшевым медведем, полицейский-телепат, сладкий мальчик со сверхчувствительным сердцем, кавказский маг, девушка с волшебной грудью… «Люди Хэ» обладают такими сверхъестественными способностями, как, например, включение принтера без электричества, излечение женской грудью от облысения и, конечно, банальная левитация. Они не признают авторитетов и не преклоняются перед знаменитостями: снять порчу с Мерседеса Игоря Верника, найти таинственного преследователя Леры Кудрявцевой, остановить необъяснимое появление чужих вещей в доме Юлии Ковальчук, а в квартире Олега Газманова обнаружить серебряные батареи — для них так же легко, как почистить зубы. Наша великолепная шестерка помогает как звездам, так и обычным людям.
«Люди Хэ» — это не просто шоу. Это соревнование за звание лучшего из лучших! Недремлющее око строгого судьи — ведущего шоу, мага и медиума в первом поколении Властелина Кольцова — неотрывно следит за великолепной шестеркой экстрасенсов. Денно и нощно он подкидывает экстрасенсам всё новые и новые испытания…
Помни: проект «Люди Хэ» не содержит ни капли лжи, только смешную неправду!
P. S. Если ты по какой-либо причине не будешь смотреть шоу «Люди Хэ», наши экстрасенсы нашлют на тебя порчу в виде повышения тарифов на коммунальные платежи!
Ведущий: Александр Ревва
Продолжительность: ~ 00:23:48
Видеокодек: XVID
Битрейт видео: ~1527 kb/s
Размер кадра: 720 x 400
Качество видео: SATRip
Аудиокодек: MP3, 2ch.
Битрейт аудио: 128 kb/s

MediaInfo

Формат : AVI
Формат/Информация : Audio Video Interleave
Размер файла : 284 Мбайт
Продолжительность : 23 м.
Общий поток : 1669 Кбит/сек
Программа кодирования : VirtualDubMod 1.5.10.3 | www.virtualdub-fr.org || (build 2550/release)
Библиотека кодирования : VirtualDubMod build 2550/release
Видео
Идентификатор : 0
Формат : MPEG-4 Visual
Профиль формата : Advanced Simple@L5
Параметр BVOP формата : 2
Параметр QPel формата : Нет
Параметр GMC формата : Без точки перехода
Параметр матрицы формата : Default (MPEG)
Идентификатор кодека : XVID
Идентификатор кодека/Подсказка : XviD
Продолжительность : 23 м.
Битрейт : 1531 Кбит/сек
Ширина : 720 пикселей
Высота : 400 пикселей
Соотношение сторон : 16:9
Частота кадров : 25,000 кадров/сек
Цветовое пространство : YUV
Субдискретизация насыщенности : 4:2:0
Битовая глубина : 8 бит
Тип развёртки : Прогрессивная
Метод сжатия : С потерями
Бит/(Пиксели*Кадры) : 0.213
Размер потока : 261 Мбайт (92%)
Библиотека кодирования : XviD 65
Аудио
Идентификатор : 1
Формат : MPEG Audio
Версия формата : Version 1
Профиль формата : Layer 3
Режим : Joint stereo
Расширение режима : MS Stereo
Идентификатор кодека : 55
Идентификатор кодека/Подсказка : MP3
Продолжительность : 23 м.
Вид битрейта : Постоянный
Битрейт : 128 Кбит/сек
Каналы : 2 канала
Частота : 48,0 КГц
Метод сжатия : С потерями
Размер потока : 21,8 Мбайт (8%)
Выравнивание : Соединение по промежуткам
Продолжительность промежутка : 40 мс. (1,00 видеокадр)
Время предзагрузки промежутка : 504 мс.
Скриншоты:

[Цитировать]



Показать сообщения:    

Текущее время: 08-Дек 03:10

Часовой пояс: UTC + 3


Вы не можете начинать темы
Вы не можете отвечать на сообщения
Вы не можете редактировать свои сообщения
Вы не можете удалять свои сообщения
Вы не можете голосовать в опросах
Вы не можете прикреплять файлы к сообщениям
Вы не можете скачивать файлы

!ВНИМАНИЕ!
Сайт не предоставляет электронные версии произведений, а занимается лишь коллекционированием и каталогизацией ссылок, присылаемых и публикуемых на форуме нашими читателями. Если вы являетесь правообладателем какого-либо представленного материала и не желаете, чтобы ссылка на него находилась в нашем каталоге, свяжитесь с нами, и мы незамедлительно удалим ее. Файлы для обмена на трекере предоставлены пользователями сайта, и администрация не несет ответственности за их содержание. Просьба не заливать файлы, защищенные авторскими правами, а также файлы нелегального содержания!