[ Сегодня идет свободное скачивание без начисления Download ]


Статистика раздачи
Нет
 
   
 
Top  
 
 
-VA - 100 Gold Trance Tracks (2012)- Год: 2012
Страна-производитель диска: Россия
Издатель (лейбл): Open Gate Records/Правительство Звука
Номер по каталогу: ПРЗ CD06094
Жанр: Trance, Uplifting Trance, Progressive Trance,
Продолжительность: 06:27:52-Кодек: FLAC (*.flac)
Битрейт: Lossless
Тип рипа: image+.cue
Источник (релизер): Свой диск-В декабре всегда принято подводить итоги уходящего года, оглядываться назад и вспоминать его самые яркие моменты. Open Gate поддерживает эту добрую традицию и представляет микс из лучших транс-композиций, которые в 2012-м году заставляли двигаться в едином порыве многотысячные танцполы, волновали умы радиослушателей и добирались до потаенных уголков души каждого поклонника этого стиля. На пяти дисках мы собрали 100 треков, которые часто звучали в легендарных клубах и на крупнейших фестивалях мира, которые по нескольку дней, а то и недель прочно держались в трансовой десятке Beatport и чартах ведущих радиостанций. Это не просто проходные релизы, а качественные работы, порой претендующие на статус классических.-

продолжение описания:

О них еще долго будут вспоминать с особым трепетом, их будут переслушивать по несколько раз и долго хранить в домашних коллекциях, не давая запылиться. Здесь отметились и матёрые продюсеры, и талантливые новички, для которых транс – это не просто музыка, а состояние души. Сборник «100 Gold Trance Tracks» охватывает практически все разновидности этого стиля – тут нашлось место для аплифтинга, вокальных композиций, мрачных треков, энергичных танцевальных бомб, пик-тайм треков, прогрессива и многих других. Markus Schulz, Protoculture, tyDi, Andy Moor, Ferry Corsten, Richard Durand, Roger Shah… Перечислять имена и названия треков можно до бесконечности. Важно понять одно – на компиляции «100 Gold Trance Tracks» каждый найдет для себя музыку, достойную занять почетное место в плейлисте. ©&? Open Gate Records
Продолжительность: 01:16:50
Трек лист:
01 Omnia & IRA - The Fusion
02 Magnetic Brothers feat. Jane G vs Urry Fefelove & Abramasi - Melt With Me
03 tyDi with Tenishia & Jennifer Rene - Greater Heights (Tom Fall Remix)
04 Mark Sixma vs Fisherman & Hawkins - Perlas
05 MaRLo - Megalodon
06 Dark Matters feat. Jess Morgan - The Real You (Jorn Van Deynhoven Remix)
07 Rex Mundi - Steaming Waterfall
08 Protoculture - Ode To The Ocean
09 Emma Hewitt - Colours (Armin van Buuren Remix)
10 Tommygoff - Photon
11 Tenishia & Jan Johnston - As It Should (Haris C Remix)
12 Alex M.O.R.P.H. feat. Sylvia Tosun - Antara (The Circle)
13 Aly & Fila vs Jwaydan - Coming Home
14 Emma Hewitt - Foolish Boy (John O'Callaghan Remix)
15 Gareth Emery feat. Christina Novelli - Concrete Angel (John O'Callaghan Remix)
16 Full Tilt feat. Katrina Noorbergen - Letting Go (Jorn van Deynhoven Remix)
17 John O'Callaghan & Kathryn Gallagher - Mess Of A Machine (Sean Tyas Remix)
18 Matt Davey - Nemesis (Uplifting Mix)
19 Abstract Vision & Elite Electronic - Kinetic
20 Tenishia & Ruben de Ronde - Marsascala (Alexander Popov Remix)

Отчёт ЕАС:

Exact Audio Copy V1.0 beta 3 from 29. August 2011
Отчёт EAC об извлечении, выполненном 11. июня 2013, 23:34
Various / 100 Gold Trance Tracks
Дисковод: hp      DVDRAM GU60N   Adapter: 0  ID: 0
Режим чтения                 : Достоверность
Использование точного потока : Да
Отключение кэша аудио        : Да
Использование указателей C2  : Нет
Коррекция смещения при чтении                     : 6
Способность читать области Lead-in и Lead-out     : Нет
Заполнение пропущенных сэмплов тишиной            : Да
Удаление блоков с тишиной в начале и конце        : Нет
При вычислениях CRC использовались нулевые сэмплы : Да
Интерфейс                                         : Встроенный Win32-интерфейс для Win NT/2000
Выходной формат          : Пользовательский кодировщик
Выбранный битрейт        : 1024 kBit/s
Качество                 : Высокий
Добавление ID3-тега      : Нет
Утилита сжатия           : C:\Program Files (x86)\Exact Audio Copy\FLAC\FLAC.EXE
Дополнительные параметры : -V -8 -T "Genre=%genre%" -T "Artist=%artist%" -T "Title=%title%" -T "Album=%albumtitle%" -T "Totaldiscs=%totalcds%" -T "Discnumber=%cdnumber%" -T "Date=%year%" -T "Tracknumber=%tracknr%" -T "Comment=%comment%" %source%
TOC извлечённого CD
     Трек |   Старт  | Длительность | Начальный сектор | Конечный сектор
    ---------------------------------------------------------------------
       1  |  0:00.00 |    3:26.24   |           0      |      15473
       2  |  3:26.24 |    2:16.53   |       15474      |      25726
       3  |  5:43.02 |    4:14.34   |       25727      |      44810
       4  |  9:57.36 |    4:24.11   |       44811      |      64621
       5  | 14:21.47 |    3:36.48   |       64622      |      80869
       6  | 17:58.20 |    5:25.51   |       80870      |     105295
       7  | 23:23.71 |    4:15.29   |      105296      |     124449
       8  | 27:39.25 |    4:02.19   |      124450      |     142618
       9  | 31:41.44 |    4:57.53   |      142619      |     164946
      10  | 36:39.22 |    3:28.04   |      164947      |     180550
      11  | 40:07.26 |    3:56.37   |      180551      |     198287
      12  | 44:03.63 |    3:19.37   |      198288      |     213249
      13  | 47:23.25 |    6:13.43   |      213250      |     241267
      14  | 53:36.68 |    3:18.01   |      241268      |     256118
      15  | 56:54.69 |    2:49.72   |      256119      |     268865
      16  | 59:44.66 |    3:46.47   |      268866      |     285862
      17  | 63:31.38 |    3:30.03   |      285863      |     301615
      18  | 67:01.41 |    4:04.37   |      301616      |     319952
      19  | 71:06.03 |    3:14.08   |      319953      |     334510
      20  | 74:20.11 |    2:29.73   |      334511      |     345758
Характеристики диапазона извлечения и сообщения об ошибках
Выбранный диапазон
     Имя файла C:\Oops\100 Gold Trance Tracks\CD1\Various - 100 Gold Trance Tracks CD1.wav
     Пиковый уровень 100.0 %
     Скорость извлечения 1.5 X
     Качество диапазона 99.9 %
     CRC теста 63AFC5C7
     CRC копии 63AFC5C7
     Копирование... OK
Ошибок не произошло
AccurateRip: сводка
Трек  1  отсутствует в базе данных
Трек  2  отсутствует в базе данных
Трек  3  отсутствует в базе данных
Трек  4  отсутствует в базе данных
Трек  5  отсутствует в базе данных
Трек  6  отсутствует в базе данных
Трек  7  отсутствует в базе данных
Трек  8  отсутствует в базе данных
Трек  9  отсутствует в базе данных
Трек 10  отсутствует в базе данных
Трек 11  отсутствует в базе данных
Трек 12  отсутствует в базе данных
Трек 13  отсутствует в базе данных
Трек 14  отсутствует в базе данных
Трек 15  отсутствует в базе данных
Трек 16  отсутствует в базе данных
Трек 17  отсутствует в базе данных
Трек 18  отсутствует в базе данных
Трек 19  отсутствует в базе данных
Трек 20  отсутствует в базе данных
Ни одного трека нет в базе AccurateRip
Конец отчёта
---- CUETools DB Plugin V2.1.3
[CTDB TOCID: O6iNcuCRZudDY5VvHy..XoC1_SA-] disk not present in database, Submit result: O6iNcuCRZudDY5VvHy..XoC1_SA- has been uploaded
==== Контрольная сумма отчёта 036A35B6008F48500BD3801548BC2DD8E555B9969C177994F60CB2A7BF144B1D ====

Отчёт auCDtect Task manager:

-----------------------
DON'T MODIFY THIS FILE
-----------------------
PERFORMER: auCDtect Task Manager, ver. 1.6.0 RC1 build 1.6.0.1
Copyright (c) 2008-2010 y-soft. All rights reserved
http://y-soft.org
ANALYZER: auCDtect: CD records authenticity detector, version 0.8.2
Copyright (c) 2004 Oleg Berngardt. All rights reserved.
Copyright (c) 2004 Alexander Djourik. All rights reserved.
FILE: Various - 100 Gold Trance Tracks CD1.flac
  Size: 618914601 Hash: B6E568B077CFE5212C10697FC17FB3F7 Accuracy: -m0
  Conclusion: CDDA 100%
  Signature: AF930E0AFE0E694487F8AF6EF36AF1683A97055A
Продолжительность: 01:18:24
Трек лист:
01 JES & Andy Duguid - Before You Go (Taxigirl Edit)
02 Markus Schulz feat. Sarah Howells - Tempted (Extended Mix)
03 Emma Hewitt - Miss You Paradise (Shogun Remix)
04 Ben Gold & Tritonal - Apex
05 Omnia feat. Melissa Loretta - Halo (Dan Stone Remix)
06 Nash & Pepper pres. Ostrega - First Scream (Dennis Sheperd Remix)
07 Richard Durand & Bobina - Last Train To Moscow
08 Susana & Max Graham - Down To Nothing
09 Ali Wilson - Lights Of Aither
10 Gareth Emery - Tokyo (Ben Gold Remix)
11 Arty, Nadia Ali & BT - Must Be The Love
12 Luke Bond feat. Mark Frisch - The Other Side
13 Mark Eteson & Meredith Call - Together
14 Facade & Q'Bass - Intensity (Q'Bass Mix)
15 MaRLo - Showgrounds
16 Nash & Pepper - Ushuaia Memories
17 Ralphie B - Face Off
18 Andy Moor feat. Jessica Sweetman - In Your Arms
19 Cerf, Mitiska & Jaren with Rank 1 - Witness (Original Club Mix)
20 Mark Otten - Hyperfocus

Отчёт ЕАС:

Exact Audio Copy V1.0 beta 3 from 29. August 2011
Отчёт EAC об извлечении, выполненном 12. июня 2013, 1:48
Various / 100 Gold Trance Tracks
Дисковод: hp      DVDRAM GU60N   Adapter: 0  ID: 0
Режим чтения                 : Достоверность
Использование точного потока : Да
Отключение кэша аудио        : Да
Использование указателей C2  : Нет
Коррекция смещения при чтении                     : 6
Способность читать области Lead-in и Lead-out     : Нет
Заполнение пропущенных сэмплов тишиной            : Да
Удаление блоков с тишиной в начале и конце        : Нет
При вычислениях CRC использовались нулевые сэмплы : Да
Интерфейс                                         : Встроенный Win32-интерфейс для Win NT/2000
Выходной формат          : Пользовательский кодировщик
Выбранный битрейт        : 1024 kBit/s
Качество                 : Высокий
Добавление ID3-тега      : Нет
Утилита сжатия           : C:\Program Files (x86)\Exact Audio Copy\FLAC\FLAC.EXE
Дополнительные параметры : -V -8 -T "Genre=%genre%" -T "Artist=%artist%" -T "Title=%title%" -T "Album=%albumtitle%" -T "Totaldiscs=%totalcds%" -T "Discnumber=%cdnumber%" -T "Date=%year%" -T "Tracknumber=%tracknr%" -T "Comment=%comment%" %source%
TOC извлечённого CD
     Трек |   Старт  | Длительность | Начальный сектор | Конечный сектор
    ---------------------------------------------------------------------
       1  |  0:00.00 |    4:02.73   |           0      |      18222
       2  |  4:02.73 |    4:28.66   |       18223      |      38388
       3  |  8:31.64 |    3:08.20   |       38389      |      52508
       4  | 11:40.09 |    3:39.14   |       52509      |      68947
       5  | 15:19.23 |    2:04.50   |       68948      |      78297
       6  | 17:23.73 |    3:43.22   |       78298      |      95044
       7  | 21:07.20 |    3:12.02   |       95045      |     109446
       8  | 24:19.22 |    4:00.55   |      109447      |     127501
       9  | 28:20.02 |    5:02.10   |      127502      |     150161
      10  | 33:22.12 |    4:33.27   |      150162      |     170663
      11  | 37:55.39 |    4:12.31   |      170664      |     189594
      12  | 42:07.70 |    3:02.38   |      189595      |     203282
      13  | 45:10.33 |    3:40.65   |      203283      |     219847
      14  | 48:51.23 |    3:18.64   |      219848      |     234761
      15  | 52:10.12 |    4:11.71   |      234762      |     253657
      16  | 56:22.08 |    2:27.18   |      253658      |     264700
      17  | 58:49.26 |    4:58.40   |      264701      |     287090
      18  | 63:47.66 |    3:36.29   |      287091      |     303319
      19  | 67:24.20 |    4:58.10   |      303320      |     325679
      20  | 72:22.30 |    6:02.31   |      325680      |     352860
Характеристики диапазона извлечения и сообщения об ошибках
Выбранный диапазон
     Имя файла C:\Oops\100 Gold Trance Tracks\CD2\Various - 100 Gold Trance Tracks CD2.wav
     Пиковый уровень 100.0 %
     Скорость извлечения 1.5 X
     Качество диапазона 99.9 %
     CRC теста D9B356DC
     CRC копии D9B356DC
     Копирование... OK
Ошибок не произошло
AccurateRip: сводка
Трек  1  отсутствует в базе данных
Трек  2  отсутствует в базе данных
Трек  3  отсутствует в базе данных
Трек  4  отсутствует в базе данных
Трек  5  отсутствует в базе данных
Трек  6  отсутствует в базе данных
Трек  7  отсутствует в базе данных
Трек  8  отсутствует в базе данных
Трек  9  отсутствует в базе данных
Трек 10  отсутствует в базе данных
Трек 11  отсутствует в базе данных
Трек 12  отсутствует в базе данных
Трек 13  отсутствует в базе данных
Трек 14  отсутствует в базе данных
Трек 15  отсутствует в базе данных
Трек 16  отсутствует в базе данных
Трек 17  отсутствует в базе данных
Трек 18  отсутствует в базе данных
Трек 19  отсутствует в базе данных
Трек 20  отсутствует в базе данных
Ни одного трека нет в базе AccurateRip
Конец отчёта
---- CUETools DB Plugin V2.1.3
[CTDB TOCID: bpM1TvUgQq4UlJNL7HmTvMvSoPY-] disk not present in database, Submit result: bpM1TvUgQq4UlJNL7HmTvMvSoPY- has been uploaded
==== Контрольная сумма отчёта 0F2636FBA7E121CA9633D0506A1C334663524346C65F4F45D20A8713AD6685BD ====

Отчёт auCDtect Task manager:

-----------------------
DON'T MODIFY THIS FILE
-----------------------
PERFORMER: auCDtect Task Manager, ver. 1.6.0 RC1 build 1.6.0.1
Copyright (c) 2008-2010 y-soft. All rights reserved
http://y-soft.org
ANALYZER: auCDtect: CD records authenticity detector, version 0.8.2
Copyright (c) 2004 Oleg Berngardt. All rights reserved.
Copyright (c) 2004 Alexander Djourik. All rights reserved.
FILE: Various - 100 Gold Trance Tracks CD2.flac
  Size: 618731867 Hash: D1084DF860EFE6B0F4DB7E51F24D1E8C Accuracy: -m0
  Conclusion: CDDA 100%
  Signature: A76B9B26BC9C511C5631939D6ADF8C70DF8B2439
Продолжительность: 01:17:53
Трек лист:
01 Leon Bolier & Julie Thompson - Underwater (Marc Simz Remix)
02 Armin van Buuren - Orbion (Max Graham vs Protoculture Remix)
03 Cosmic Gate & JES - Flying Blind (Extended Mix)
04 Betsie Larkin & Sied van Riel - The Offering (Andy Duguid Remix)
05 Letthemusicplay feat. UTRB - Don't Weigh Me Down (Alex M.O.R.P.H. B2B Woody van Eyden Remix)
06 Hannah - Falling Away (Protoculture Remix)
07 Ben Gold feat. The Glass Child - Fall With Me
08 Dennis Sheperd feat. Molly Bancroft - Silence (Club Mix)
09 Jaytech feat. Steve Smith - Stranger (Kyau & Albert Remix)
10 YORK pres. Iversoon & Alex Daf feat. Eskova - I Will Survive
11 Protoculture - Perpetual Motion
12 Ferry Corsten feat. Betsie Larkin - Not Coming Down (Extended)
13 Ali Wilson - Rays Of Shamash
14 Moonbeam feat. Leusin - Daydream (Eximinds Remix)
15 Craig Connelly - Manchester AM (2012 Club Remix)
16 Solarstone & Clare Stagg - The Spell (Solarstone Pure Mix)
17 Cosmic Gate feat. Emma Hewitt - Calm Down (Extended Mix)
18 Omnia - Infina
19 Vada - Neon Lights
20 Moonbeam feat. Blackfeel Wite - In Your Eyes(Ilya Soloviev Remix)

Отчёт ЕАС:

Exact Audio Copy V1.0 beta 3 from 29. August 2011
Отчёт EAC об извлечении, выполненном 12. июня 2013, 4:06
Various / 100 Gold Trance Tracks
Дисковод: hp      DVDRAM GU60N   Adapter: 0  ID: 0
Режим чтения                 : Достоверность
Использование точного потока : Да
Отключение кэша аудио        : Да
Использование указателей C2  : Нет
Коррекция смещения при чтении                     : 6
Способность читать области Lead-in и Lead-out     : Нет
Заполнение пропущенных сэмплов тишиной            : Да
Удаление блоков с тишиной в начале и конце        : Нет
При вычислениях CRC использовались нулевые сэмплы : Да
Интерфейс                                         : Встроенный Win32-интерфейс для Win NT/2000
Выходной формат          : Пользовательский кодировщик
Выбранный битрейт        : 1024 kBit/s
Качество                 : Высокий
Добавление ID3-тега      : Нет
Утилита сжатия           : C:\Program Files (x86)\Exact Audio Copy\FLAC\FLAC.EXE
Дополнительные параметры : -V -8 -T "Genre=%genre%" -T "Artist=%artist%" -T "Title=%title%" -T "Album=%albumtitle%" -T "Totaldiscs=%totalcds%" -T "Discnumber=%cdnumber%" -T "Date=%year%" -T "Tracknumber=%tracknr%" -T "Comment=%comment%" %source%
TOC извлечённого CD
     Трек |   Старт  | Длительность | Начальный сектор | Конечный сектор
    ---------------------------------------------------------------------
       1  |  0:00.00 |    4:53.06   |           0      |      21980
       2  |  4:53.06 |    3:01.48   |       21981      |      35603
       3  |  7:54.54 |    3:19.15   |       35604      |      50543
       4  | 11:13.69 |    4:45.08   |       50544      |      71926
       5  | 15:59.02 |    3:10.09   |       71927      |      86185
       6  | 19:09.11 |    3:26.33   |       86186      |     101668
       7  | 22:35.44 |    4:55.23   |      101669      |     123816
       8  | 27:30.67 |    4:20.67   |      123817      |     143383
       9  | 31:51.59 |    2:50.16   |      143384      |     156149
      10  | 34:42.00 |    3:19.74   |      156150      |     171148
      11  | 38:01.74 |    4:07.61   |      171149      |     189734
      12  | 42:09.60 |    3:47.12   |      189735      |     206771
      13  | 45:56.72 |    4:44.04   |      206772      |     228075
      14  | 50:41.01 |    2:32.43   |      228076      |     239518
      15  | 53:13.44 |    4:35.50   |      239519      |     260193
      16  | 57:49.19 |    4:20.70   |      260194      |     279763
      17  | 62:10.14 |    3:15.48   |      279764      |     294436
      18  | 65:25.62 |    3:18.41   |      294437      |     309327
      19  | 68:44.28 |    2:32.74   |      309328      |     320801
      20  | 71:17.27 |    6:35.64   |      320802      |     350490
Характеристики диапазона извлечения и сообщения об ошибках
Выбранный диапазон
     Имя файла C:\Oops\100 Gold Trance Tracks\CD3\Various - 100 Gold Trance Tracks CD3.wav
     Пиковый уровень 70.7 %
     Скорость извлечения 1.6 X
     Качество диапазона 99.9 %
     CRC теста CA9E6177
     CRC копии CA9E6177
     Копирование... OK
Ошибок не произошло
AccurateRip: сводка
Трек  1  отсутствует в базе данных
Трек  2  отсутствует в базе данных
Трек  3  отсутствует в базе данных
Трек  4  отсутствует в базе данных
Трек  5  отсутствует в базе данных
Трек  6  отсутствует в базе данных
Трек  7  отсутствует в базе данных
Трек  8  отсутствует в базе данных
Трек  9  отсутствует в базе данных
Трек 10  отсутствует в базе данных
Трек 11  отсутствует в базе данных
Трек 12  отсутствует в базе данных
Трек 13  отсутствует в базе данных
Трек 14  отсутствует в базе данных
Трек 15  отсутствует в базе данных
Трек 16  отсутствует в базе данных
Трек 17  отсутствует в базе данных
Трек 18  отсутствует в базе данных
Трек 19  отсутствует в базе данных
Трек 20  отсутствует в базе данных
Ни одного трека нет в базе AccurateRip
Конец отчёта
---- CUETools DB Plugin V2.1.3
[CTDB TOCID: 3Lyl3PvmUKN341HvFr3FHX01U8s-] disk not present in database, Submit result: 3Lyl3PvmUKN341HvFr3FHX01U8s- has been uploaded
==== Контрольная сумма отчёта B92CF48359019495A41BCD8E74ED438EB40839ED0A8ACCADE35B7826D66B1B5E ====

Отчёт auCDtect Task manager:

-----------------------
DON'T MODIFY THIS FILE
-----------------------
PERFORMER: auCDtect Task Manager, ver. 1.6.0 RC1 build 1.6.0.1
Copyright (c) 2008-2010 y-soft. All rights reserved
http://y-soft.org
ANALYZER: auCDtect: CD records authenticity detector, version 0.8.2
Copyright (c) 2004 Oleg Berngardt. All rights reserved.
Copyright (c) 2004 Alexander Djourik. All rights reserved.
FILE: Various - 100 Gold Trance Tracks CD3.flac
  Size: 611891573 Hash: AFE3D885BE30A724207C0802B05018A9 Accuracy: -m0
  Conclusion: CDDA 100%
  Signature: 38AFBA021872235A514F97DD2A4042B6B243FDB3
Продолжительность: 01:17:09
Трек лист:
01 Andain - Turn Up the Sound (Xtigma Remix)
02 Super8 & Tab feat. Jan Burton - Black is Back (Classic Vocal Mix)
03 Ashley Wallbridge feat. Audrey Gallagher - Bang The Drum (Club Mix)
04 Andain - Much Too Much (Mike Shiver Remix)
05 J-Soul feat. Blackfeel Wite - Indi Space
06 Roger Shah & Sian Kosheen - Shine (Pedro Del Mar Remix)
07 Alex M.O.R.P.H. & Protoculture - Waking Up The Stars
08 Andrew Rayel feat. Jano - How Do I Know
09 Andy Moor feat. Stine Grove - Time Will Tell (Extended Mix)
10 Ben Gold - Where Life Takes Us
11 Cerf, Mitiska & Jaren with Fine Taste - Ready For Go (DJ Feel Remix)
12 Danilo Ercole feat. Roberta Harrison & Steven Taetz - Meet You Where You Are
13 Lemon - We Can't Fly (Solarstone Pure Mix)
14 Paul Webster feat. Angelic Amanda - Time (MaRLo Remix)
15 Dash Berlin feat. Sarah Howells - Go It Alone (Club Mix)
16 Ferry Corsten feat. Aruna - Live Forever (Extended)
17 Markus Schulz feat. Aruna - Sing Me Back To Life (Extended Mix)
18 Remy Le Duc, The EC Twins, Zen Freeman feat. Shakeh - In Motion
19 Bobina - The Space Track
20 Paul van Dyk ft. Arty - The Ocean (Extended Mix)

Отчёт ЕАС:

Exact Audio Copy V1.0 beta 3 from 29. August 2011
Отчёт EAC об извлечении, выполненном 12. июня 2013, 7:25
Unknown Artist / 100 Gold Trance Tracks
Дисковод: hp      DVDRAM GU60N   Adapter: 0  ID: 0
Режим чтения                 : Достоверность
Использование точного потока : Да
Отключение кэша аудио        : Да
Использование указателей C2  : Нет
Коррекция смещения при чтении                     : 6
Способность читать области Lead-in и Lead-out     : Нет
Заполнение пропущенных сэмплов тишиной            : Да
Удаление блоков с тишиной в начале и конце        : Нет
При вычислениях CRC использовались нулевые сэмплы : Да
Интерфейс                                         : Встроенный Win32-интерфейс для Win NT/2000
Выходной формат          : Пользовательский кодировщик
Выбранный битрейт        : 1024 kBit/s
Качество                 : Высокий
Добавление ID3-тега      : Нет
Утилита сжатия           : C:\Program Files (x86)\Exact Audio Copy\FLAC\FLAC.EXE
Дополнительные параметры : -V -8 -T "Genre=%genre%" -T "Artist=%artist%" -T "Title=%title%" -T "Album=%albumtitle%" -T "Totaldiscs=%totalcds%" -T "Discnumber=%cdnumber%" -T "Date=%year%" -T "Tracknumber=%tracknr%" -T "Comment=%comment%" %source%
TOC извлечённого CD
     Трек |   Старт  | Длительность | Начальный сектор | Конечный сектор
    ---------------------------------------------------------------------
       1  |  0:00.00 |    6:03.32   |           0      |      27256
       2  |  6:03.32 |    4:24.32   |       27257      |      47088
       3  | 10:27.64 |    4:13.33   |       47089      |      66096
       4  | 14:41.22 |    3:50.34   |       66097      |      83380
       5  | 18:31.56 |    3:24.32   |       83381      |      98712
       6  | 21:56.13 |    2:56.26   |       98713      |     111938
       7  | 24:52.39 |    5:06.22   |      111939      |     134910
       8  | 29:58.61 |    4:46.67   |      134911      |     156427
       9  | 34:45.53 |    3:51.58   |      156428      |     173810
      10  | 38:37.36 |    5:00.00   |      173811      |     196310
      11  | 43:37.36 |    5:07.53   |      196311      |     219388
      12  | 48:45.14 |    3:14.08   |      219389      |     233946
      13  | 51:59.22 |    4:03.36   |      233947      |     252207
      14  | 56:02.58 |    2:57.00   |      252208      |     265482
      15  | 58:59.58 |    3:18.48   |      265483      |     280380
      16  | 62:18.31 |    3:00.45   |      280381      |     293925
      17  | 65:19.01 |    2:04.37   |      293926      |     303262
      18  | 67:23.38 |    3:04.60   |      303263      |     317122
      19  | 70:28.23 |    2:19.01   |      317123      |     327548
      20  | 72:47.24 |    4:22.14   |      327549      |     347212
Характеристики диапазона извлечения и сообщения об ошибках
Выбранный диапазон
     Имя файла C:\Oops\100 Gold Trance Tracks\CD4\Unknown Artist - 100 Gold Trance Tracks CD4.wav
     Пиковый уровень 100.0 %
     Скорость извлечения 1.6 X
     Качество диапазона 100.0 %
     CRC теста 63FA7ED0
     CRC копии 63FA7ED0
     Копирование... OK
Ошибок не произошло
AccurateRip: сводка
Трек  1  отсутствует в базе данных
Трек  2  отсутствует в базе данных
Трек  3  отсутствует в базе данных
Трек  4  отсутствует в базе данных
Трек  5  отсутствует в базе данных
Трек  6  отсутствует в базе данных
Трек  7  отсутствует в базе данных
Трек  8  отсутствует в базе данных
Трек  9  отсутствует в базе данных
Трек 10  отсутствует в базе данных
Трек 11  отсутствует в базе данных
Трек 12  отсутствует в базе данных
Трек 13  отсутствует в базе данных
Трек 14  отсутствует в базе данных
Трек 15  отсутствует в базе данных
Трек 16  отсутствует в базе данных
Трек 17  отсутствует в базе данных
Трек 18  отсутствует в базе данных
Трек 19  отсутствует в базе данных
Трек 20  отсутствует в базе данных
Ни одного трека нет в базе AccurateRip
Конец отчёта
---- CUETools DB Plugin V2.1.3
[CTDB TOCID: SjZ.fnovt976L1hzrFJpM0tG2rk-] disk not present in database, Submit result: SjZ.fnovt976L1hzrFJpM0tG2rk- has been uploaded
==== Контрольная сумма отчёта 28588F7B86F218A4610F7F6F495E6EA5F82E1350A7E6F1A0DCC481710FC59239 ====

Отчёт auCDtect Task manager:

-----------------------
DON'T MODIFY THIS FILE
-----------------------
PERFORMER: auCDtect Task Manager, ver. 1.6.0 RC1 build 1.6.0.1
Copyright (c) 2008-2010 y-soft. All rights reserved
http://y-soft.org
ANALYZER: auCDtect: CD records authenticity detector, version 0.8.2
Copyright (c) 2004 Oleg Berngardt. All rights reserved.
Copyright (c) 2004 Alexander Djourik. All rights reserved.
FILE: Unknown Artist - 100 Gold Trance Tracks CD4.flac
  Size: 603750002 Hash: 75823A319D858476F47BF21C3BD587E5 Accuracy: -m0
  Conclusion: CDDA 100%
  Signature: 3BCF7FC38588B86E8D5B1F97E6B24BFEFBCACFAA
Продолжительность: 01:17:34
Трек лист:
01 Matt Darey & Stan Kolev feat. Aelyn - Follow You (Original Club Mix)
02 Pulser feat. Molly Bancroft - In Deep (Pulser's Main Floor Remix)
03 Aerofeel5 feat. Eva Kade - Friday Night
04 Ashley Wallbridge feat. Elleah - Keep The Fire (Club Mix)
05 Moonbeam feat. Avis Vox - Disappearance (D.Yashnov Remix)
06 Andrew Bayer & Matt Lange feat. Kerry Leva - In And Out Of Phase (Club Edit)
07 Cerf, Mitiska & Jaren and Chris Jones - Starting Right Now (Original Club Mix)
08 Richard Durand & Pedro Del Mar feat. Roberta Harrison - Paint the Sky
09 Adam Kancerski - Orion
10 Above & Beyond - On My Way To Heaven (Above & Beyond Club Mix)
11 Bluestone - Capetown
12 Roger Shah feat. Carla Werner - One Love (Rocking J Remix)
13 Ost & Meyer - Scarlet Heaven (Dan Stone Remix)
14 Dash Berlin feat. Chris Madin - Silence In Your Heart (Club Mix)
15 Markus Schulz feat. Adina Butar - Universe Is Mine (Extended Mix)
16 Setrise vs Johann Stone - Icesave
17 Sunlounger & Zara Taylor - Try To Be Love (Roger Shah Naughty Love Mix)
18 Andy Moor & Ashley Wallbridge feat. Gabriela - World To Turn (Club Mix)
19 Velvetine - The Great Divide
20 Paul van Dyk feat Plumb - I Don't Deserve You (Extended Mix)

Отчёт ЕАС:

Exact Audio Copy V1.0 beta 3 from 29. August 2011
Отчёт EAC об извлечении, выполненном 12. июня 2013, 8:57
Various / 100 Gold Trance Tracks
Дисковод: hp      DVDRAM GU60N   Adapter: 0  ID: 0
Режим чтения                 : Достоверность
Использование точного потока : Да
Отключение кэша аудио        : Да
Использование указателей C2  : Нет
Коррекция смещения при чтении                     : 6
Способность читать области Lead-in и Lead-out     : Нет
Заполнение пропущенных сэмплов тишиной            : Да
Удаление блоков с тишиной в начале и конце        : Нет
При вычислениях CRC использовались нулевые сэмплы : Да
Интерфейс                                         : Встроенный Win32-интерфейс для Win NT/2000
Выходной формат          : Пользовательский кодировщик
Выбранный битрейт        : 1024 kBit/s
Качество                 : Высокий
Добавление ID3-тега      : Нет
Утилита сжатия           : C:\Program Files (x86)\Exact Audio Copy\FLAC\FLAC.EXE
Дополнительные параметры : -V -8 -T "Genre=%genre%" -T "Artist=%artist%" -T "Title=%title%" -T "Album=%albumtitle%" -T "Totaldiscs=%totalcds%" -T "Discnumber=%cdnumber%" -T "Date=%year%" -T "Tracknumber=%tracknr%" -T "Comment=%comment%" %source%
TOC извлечённого CD
     Трек |   Старт  | Длительность | Начальный сектор | Конечный сектор
    ---------------------------------------------------------------------
       1  |  0:00.00 |    3:27.66   |           0      |      15590
       2  |  3:27.66 |    3:47.53   |       15591      |      32668
       3  |  7:15.44 |    2:59.33   |       32669      |      46126
       4  | 10:15.02 |    4:42.48   |       46127      |      67324
       5  | 14:57.50 |    3:18.12   |       67325      |      82186
       6  | 18:15.62 |    3:51.29   |       82187      |      99540
       7  | 22:07.16 |    4:36.23   |       99541      |     120263
       8  | 26:43.39 |    2:40.30   |      120264      |     132293
       9  | 29:23.69 |    3:29.11   |      132294      |     147979
      10  | 32:53.05 |    3:10.37   |      147980      |     162266
      11  | 36:03.42 |    4:41.51   |      162267      |     183392
      12  | 40:45.18 |    4:24.12   |      183393      |     203204
      13  | 45:09.30 |    3:53.43   |      203205      |     220722
      14  | 49:02.73 |    3:08.20   |      220723      |     234842
      15  | 52:11.18 |    2:51.04   |      234843      |     247671
      16  | 55:02.22 |    3:22.30   |      247672      |     262851
      17  | 58:24.52 |    4:44.52   |      262852      |     284203
      18  | 63:09.29 |    3:37.02   |      284204      |     300480
      19  | 66:46.31 |    4:31.74   |      300481      |     320879
      20  | 71:18.30 |    6:16.01   |      320880      |     349080
Характеристики диапазона извлечения и сообщения об ошибках
Выбранный диапазон
     Имя файла C:\Oops\100 Gold Trance Tracks\CD5\Various - 100 Gold Trance Tracks CD5.wav
     Пиковый уровень 100.0 %
     Скорость извлечения 1.6 X
     Качество диапазона 100.0 %
     CRC теста A3091049
     CRC копии A3091049
     Копирование... OK
Ошибок не произошло
AccurateRip: сводка
Трек  1  отсутствует в базе данных
Трек  2  отсутствует в базе данных
Трек  3  отсутствует в базе данных
Трек  4  отсутствует в базе данных
Трек  5  отсутствует в базе данных
Трек  6  отсутствует в базе данных
Трек  7  отсутствует в базе данных
Трек  8  отсутствует в базе данных
Трек  9  отсутствует в базе данных
Трек 10  отсутствует в базе данных
Трек 11  отсутствует в базе данных
Трек 12  отсутствует в базе данных
Трек 13  отсутствует в базе данных
Трек 14  отсутствует в базе данных
Трек 15  отсутствует в базе данных
Трек 16  отсутствует в базе данных
Трек 17  отсутствует в базе данных
Трек 18  отсутствует в базе данных
Трек 19  отсутствует в базе данных
Трек 20  отсутствует в базе данных
Ни одного трека нет в базе AccurateRip
Конец отчёта
---- CUETools DB Plugin V2.1.3
[CTDB TOCID: 2HMr3Dvsi7CyJaD5ZW59FvPh_E8-] disk not present in database, Submit result: 2HMr3Dvsi7CyJaD5ZW59FvPh_E8- has been uploaded
==== Контрольная сумма отчёта 073D531E9CF2BB8F947D906C8900F7E6B87476B54C4A3ED1CC72E55A6B78BAA6 ====

Отчёт auCDtect Task manager:

-----------------------
DON'T MODIFY THIS FILE
-----------------------
PERFORMER: auCDtect Task Manager, ver. 1.6.0 RC1 build 1.6.0.1
Copyright (c) 2008-2010 y-soft. All rights reserved
http://y-soft.org
ANALYZER: auCDtect: CD records authenticity detector, version 0.8.2
Copyright (c) 2004 Oleg Berngardt. All rights reserved.
Copyright (c) 2004 Alexander Djourik. All rights reserved.
FILE: Various - 100 Gold Trance Tracks CD5.flac
  Size: 626632736 Hash: C52A130409886BD3D3BC427EC580F8C7 Accuracy: -m0
  Conclusion: CDDA 100%
  Signature: EA3005B6594D4F7FF9728F6390ADA513B827B772
Время раздачи: (до первых 10-ти сидов)

[Цитировать]



Показать сообщения:    

Текущее время: 09-Дек 16:28

Часовой пояс: UTC + 3


Вы не можете начинать темы
Вы не можете отвечать на сообщения
Вы не можете редактировать свои сообщения
Вы не можете удалять свои сообщения
Вы не можете голосовать в опросах
Вы не можете прикреплять файлы к сообщениям
Вы не можете скачивать файлы

!ВНИМАНИЕ!
Сайт не предоставляет электронные версии произведений, а занимается лишь коллекционированием и каталогизацией ссылок, присылаемых и публикуемых на форуме нашими читателями. Если вы являетесь правообладателем какого-либо представленного материала и не желаете, чтобы ссылка на него находилась в нашем каталоге, свяжитесь с нами, и мы незамедлительно удалим ее. Файлы для обмена на трекере предоставлены пользователями сайта, и администрация не несет ответственности за их содержание. Просьба не заливать файлы, защищенные авторскими правами, а также файлы нелегального содержания!