[ Сегодня идет свободное скачивание без начисления Download ]


Статистика раздачи
Нет
 
   
 
Top  
 
 
-Хватай и беги / Hit and Run (2012) BDRip- Русское название: Хватай и беги
Оригинальное название: Hit and Run
Год выпуска: 2012
Производство: США
Жанр: Боевик, Мелодрама, Комедия
Перевод: Многоголосый закадровый (Лицензия)
Субтитры: Вшитые отключаемые
Язык субтитров: Английский
Режиссер: Дэвид Палмер, Дэкс Шепард
Актеры: Кристен Белл, Дэкс Шепард, Брэдли Купер, Том Арнольд, Кристин Ченоуэт, Майкл Розенбаум, Джой Брайант, Райан Хансен, Бо Бриджес, Шон Хейс
Описание фильма:
Бывший грабитель банков Чарли, когда-то пошедший на сделку с правосудием, скрывается в маленьком калифорнийском городке: у него свой дом, налаженный быт и любимая девушка Энни. Когда Энни узнает, что у нее есть шанс получить работу мечты в Лос-Анджелесе, она уговаривает Чарли нарушить правила, высунуть нос из городка и отвезти ее на собеседование...
Дата мировой премьеры: 2 августа 2012
Дата российской премьеры: 31 января 2013, «WDSSPR»
Дата выхода DVD релиза: 17 июня 2013, «Новый Диск»

Продолжительность: 01:39:51
Качество видео: BDRip [1080p]
Видеокодек: MPEG-4 AVC/H.264
Видео: 1920x800, ~11.0 Mbps
Аудио 1: AC3, 6 ch, 448 Kbps (Многоголосый, Русский)
Аудио 2: DTS, 6 ch, 1510 Kbps (Оригинал, Английский)

MediaInfo:

Общее
Уникальный идентификатор : 209195993455792848191272203644769599307 (0x9D61AECC4221E59F8570F8FBD6AAFF4B)
Полное имя : Hvataj.i.begi.2012.P.BDRip.1080p.mkv
Формат : Matroska
Версия формата : Version 2
Размер файла : 9,03 Гбайт
Продолжительность : 1 ч. 39 м.
Общий поток : 13,0 Мбит/сек
Название фильма : IRONCLUB
Дата кодирования : UTC 2013-06-13 09:13:43
Программа кодирования : mkvmerge v5.2.0 ('I can't explain') built on Dec 18 2011 18:12:03
Библиотека кодирования : libebml v1.2.3 + libmatroska v1.3.0
Видео
Идентификатор : 1
Формат : AVC
Формат/Информация : Advanced Video Codec
Профиль формата : [email protected]
Параметр CABAC формата : Да
Параметр ReFrames формата : 5 кадров
Идентификатор кодека : V_MPEG4/ISO/AVC
Продолжительность : 1 ч. 39 м.
Битрейт : 11,0 Мбит/сек
Ширина : 1920 пикселей
Высота : 800 пикселей
Соотношение сторон : 2,40:1
Режим частоты кадров : Постоянный
Частота кадров : 23,976 кадра/сек
Цветовое пространство : YUV
Субдискретизация насыщенности : 4:2:0
Битовая глубина : 8 бит
Тип развёртки : Прогрессивная
Бит/(Пиксели*Кадры) : 0.299
Размер потока : 7,49 Гбайт (83%)
Заголовок : Hit.and.Run.2012.1080p.BluRay.DTS.x264-HDMaNiAcS
Библиотека кодирования : x264 core 129 r2245 bc13772
Настройки программы : cabac=1 / ref=5 / deblock=1:-3:-3 / analyse=0x3:0x113 / me=tesa / subme=11 / psy=1 / psy_rd=1.05:0.00 / mixed_ref=1 / me_range=24 / chroma_me=1 / trellis=2 / 8x8dct=1 / cqm=0 / deadzone=21,11 / fast_pskip=1 / chroma_qp_offset=-2 / threads=12 / lookahead_threads=2 / sliced_threads=0 / nr=0 / decimate=1 / interlaced=0 / bluray_compat=0 / constrained_intra=0 / bframes=8 / b_pyramid=2 / b_adapt=2 / b_bias=0 / direct=3 / weightb=1 / open_gop=0 / weightp=2 / keyint=240 / keyint_min=23 / scenecut=40 / intra_refresh=0 / rc=2pass / mbtree=0 / bitrate=11000 / ratetol=1.0 / qcomp=0.60 / qpmin=10 / qpmax=69 / qpstep=4 / cplxblur=20.0 / qblur=0.5 / ip_ratio=1.40 / pb_ratio=1.30 / aq=2:0.80
Язык : English
Default : Да
Forced : Да
Аудио #1
Идентификатор : 2
Формат : AC-3
Формат/Информация : Audio Coding 3
Расширение режима : CM (complete main)
Параметр Endianness формата : Big
Идентификатор кодека : A_AC3
Продолжительность : 1 ч. 39 м.
Вид битрейта : Постоянный
Битрейт : 448 Кбит/сек
Каналы : 6 каналов
Расположение каналов : Front: L C R, Side: L R, LFE
Частота : 48,0 КГц
Битовая глубина : 16 бит
Метод сжатия : С потерями
Размер потока : 320 Мбайт (3%)
Заголовок : DD 5.1 @ 448 kbps - MVO, R5
Язык : Russian
Default : Да
Forced : Да
Аудио #2
Идентификатор : 3
Формат : DTS
Формат/Информация : Digital Theater Systems
Режим : 16
Параметр Endianness формата : Big
Идентификатор кодека : A_DTS
Продолжительность : 1 ч. 39 м.
Вид битрейта : Постоянный
Битрейт : 1509 Кбит/сек
Каналы : 6 каналов
Расположение каналов : Front: L C R, Side: L R, LFE
Частота : 48,0 КГц
Битовая глубина : 24 бит
Метод сжатия : С потерями
Размер потока : 1,05 Гбайт (12%)
Заголовок : DTS 5.1 @ 1510 kbps
Язык : English
Default : Нет
Forced : Нет
Текст
Идентификатор : 4
Формат : UTF-8
Идентификатор кодека : S_TEXT/UTF8
Идентификатор кодека/Информация : UTF-8 Plain Text
Заголовок : SDH
Язык : English
Default : Нет
Forced : Нет
Меню
00:00:00.000 : en:00:00:00.000
00:06:00.026 : en:00:06:00.026
00:11:58.801 : en:00:11:58.801
00:18:55.217 : en:00:18:55.217
00:24:01.481 : en:00:24:01.481
00:29:59.672 : en:00:29:59.672
00:36:58.007 : en:00:36:58.007
00:42:28.379 : en:00:42:28.379
00:49:15.202 : en:00:49:15.202
00:55:00.297 : en:00:55:00.297
01:00:24.537 : en:01:00:24.537
01:05:34.221 : en:01:05:34.221
01:11:59.314 : en:01:11:59.314
01:17:44.910 : en:01:17:44.910
01:24:29.272 : en:01:24:29.272
01:33:00.783 : en:01:33:00.783
Скриншоты:


Время раздачи: Обычно с 19:00 до 00:00

[Цитировать]



Показать сообщения:    

Текущее время: 05-Дек 15:34

Часовой пояс: UTC + 3


Вы не можете начинать темы
Вы не можете отвечать на сообщения
Вы не можете редактировать свои сообщения
Вы не можете удалять свои сообщения
Вы не можете голосовать в опросах
Вы не можете прикреплять файлы к сообщениям
Вы не можете скачивать файлы

!ВНИМАНИЕ!
Сайт не предоставляет электронные версии произведений, а занимается лишь коллекционированием и каталогизацией ссылок, присылаемых и публикуемых на форуме нашими читателями. Если вы являетесь правообладателем какого-либо представленного материала и не желаете, чтобы ссылка на него находилась в нашем каталоге, свяжитесь с нами, и мы незамедлительно удалим ее. Файлы для обмена на трекере предоставлены пользователями сайта, и администрация не несет ответственности за их содержание. Просьба не заливать файлы, защищенные авторскими правами, а также файлы нелегального содержания!