[ Сегодня идет свободное скачивание без начисления Download ]


Статистика раздачи
Нет
 
   
 
Top  
 
 
-Остров смерти / Black Rock (2012) WEB-DLRip- Русское название: Остров смерти
Оригинальное название: Black Rock
Год выпуска: 2012
Производство: США
Жанр: Ужасы, Триллер
Перевод: Профессиональный двухголосый, закадровый
Субтитры: Вшитые отключаемые
Язык субтитров: Английский
Дата мировой премьеры: 21 января 2012
Дата российской премьеры: 11 июля 2013, «Кинопром»
Режиссер: Кэтрин Аселтон
Продюсер: Аделе Романски, Кэтрин Аселтон, Марк Дюпласс
Актеры: Кэтрин Аселтон, Лэйк Белл, Кейт Босворт, Уилл Бовье, Джей Полсон, Анслем Ричардсон, Карл К. Аселтон III, Др. Карл Аселтон, Генри Барронс, Джон Дэвис
Описание фильма:
Три подруги детства решают устроить пикник на удаленном острове. Однако незапланированная встреча с агрессивно настроенными ветеранами иракской войны превращает отдых в сущий кошмар.

Продолжительность: 01:19:53
Качество видео: WEB-DLRip
Видеокодек: MPEG-4 AVC/H.264
Битрейт видео: ~3842 Kbit/s
Размер кадра: 1280 x 686
Aудио #1: AC3, 48,0 КHz, 5.1, 384 Kbit/s (Русский двухголосый)
Aудио #2: AC3, 48,0 КHz, 5.1, 384 Kbit/s (Оригинальный английский)
Дополнительно: Сохранены оригинальные чаптеры

MediaInfo

Общее
Уникальный идентификатор : 233993914997592457774137843922042273223 (0xB00996B99E8D9E5594E5FA21F3BEBDC7)
Полное имя : D:\Торренты\Остров смерти.2012.WEB-DL.720p.mkv
Формат : Matroska
Размер файла : 2,62 Гбайт
Продолжительность : 1 ч. 19 м.
Общий поток : 4703 Кбит/сек
Дата кодирования : UTC 2013-06-14 07:57:45
Программа кодирования : mkvmerge v5.4.0 ('Piper')
Библиотека кодирования : libebml v1.2.3 + libmatroska v1.3.0
Видео
Идентификатор : 1
Формат : AVC
Формат/Информация : Advanced Video Codec
Профиль формата : High@L3.1
Параметр CABAC формата : Нет
Параметр ReFrames формата : 2 кадра
Режим смешивания : Header stripping
Идентификатор кодека : V_MPEG4/ISO/AVC
Продолжительность : 1 ч. 19 м.
Битрейт : 3842 Кбит/сек
Ширина : 1280 пикс.
Высота : 686 пикс.
Соотношение сторон : 1,866
Частота кадров : 23,976 кадр/сек
Цветовое пространство : YUV
Подвыборка цветности : 4:2:0
Битовая глубина : 8 бит
Тип развёртки : Прогрессивная
Бит/(Пиксели*Кадры) : 0.182
Размер потока : 2,14 Гбайт (82%)
Язык : English
Основные цвета : BT.709-5, BT.1361, IEC 61966-2-4, SMPTE RP177
Характеристики трансфера : BT.709-5, BT.1361
Коэффициенты матрицы : BT.709-5, BT.1361, IEC 61966-2-4 709, SMPTE RP177
Аудио #1
Идентификатор : 2
Формат : AC-3
Формат/Информация : Audio Coding 3
Расширение режима : CM (complete main)
Режим смешивания : Header stripping
Идентификатор кодека : A_AC3
Продолжительность : 1 ч. 19 м.
Вид битрейта : Постоянный
Битрейт : 384 Кбит/сек
Каналы : 6 каналов
Расположение каналов : Front: L C R, Side: L R, LFE
Частота : 48,0 КГц
Битовая глубина : 16 бит
Метод сжатия : С потерями
Размер потока : 219 Мбайт (8%)
Язык : Russian
Аудио #2
Идентификатор : 3
Формат : AC-3
Формат/Информация : Audio Coding 3
Расширение режима : CM (complete main)
Режим смешивания : Header stripping
Идентификатор кодека : A_AC3
Продолжительность : 1 ч. 19 м.
Вид битрейта : Постоянный
Битрейт : 384 Кбит/сек
Каналы : 6 каналов
Расположение каналов : Front: L C R, Side: L R, LFE
Частота : 48,0 КГц
Битовая глубина : 16 бит
Метод сжатия : С потерями
Размер потока : 219 Мбайт (8%)
Язык : English
Текст
Идентификатор : 4
Формат : UTF-8
Идентификатор кодека : S_TEXT/UTF8
Идентификатор кодека/Информация : UTF-8 Plain Text
Язык : English
Меню
00:00:00.000 : en:Chapter 1
00:08:57.000 : en:Chapter 2
00:17:15.000 : en:Chapter 3
00:27:51.000 : en:Chapter 4
00:38:18.000 : en:Chapter 5
00:47:20.000 : en:Chapter 6
00:58:51.000 : en:Chapter 7
01:08:50.000 : en:Chapter 8
01:15:49.000 : en:Chapter 9
Скриншоты:
Время раздачи: 24/7 по возможности

[Цитировать]

Топик был перенесен из форума Новинки кинопроката в форум Ужасы
Henkok



Показать сообщения:    

Текущее время: 10-Дек 06:03

Часовой пояс: UTC + 3


Вы не можете начинать темы
Вы не можете отвечать на сообщения
Вы не можете редактировать свои сообщения
Вы не можете удалять свои сообщения
Вы не можете голосовать в опросах
Вы не можете прикреплять файлы к сообщениям
Вы не можете скачивать файлы

!ВНИМАНИЕ!
Сайт не предоставляет электронные версии произведений, а занимается лишь коллекционированием и каталогизацией ссылок, присылаемых и публикуемых на форуме нашими читателями. Если вы являетесь правообладателем какого-либо представленного материала и не желаете, чтобы ссылка на него находилась в нашем каталоге, свяжитесь с нами, и мы незамедлительно удалим ее. Файлы для обмена на трекере предоставлены пользователями сайта, и администрация не несет ответственности за их содержание. Просьба не заливать файлы, защищенные авторскими правами, а также файлы нелегального содержания!