[ Сегодня идет свободное скачивание без начисления Download ]


Статистика раздачи
Нет
 
   
 
Top  
 
 
-Остров смерти / Black Rock (2012) WEB-DLRip- Русское название: Остров смерти
Оригинальное название: Black Rock
Год выпуска: 2012
Производство: США
Жанр: Триллер, Ужасы
Перевод: Двуголосый закадровый
Субтитры: Нет
Дата мировой премьеры: 21 января 2012
Дата российской премьеры: 11 июля 2013, «Кинопром»
Режиссер: Кэтрин Аселтон
Актеры: Кэтрин Аселтон, Лэйк Белл, Кейт Босворт, Уилл Бовье, Джей Полсон, Анслем Ричардсон, Карл Аселтон, Генри Барронс, Джон Дэвис
Описание фильма:
Подруги детства решают устроить пикник на удаленном острове. Однако незапланированная встреча с агрессивно настроенными ветеранами иракской войны превращает отдых в сущий кошмар...

Продолжительность: 01:19:53
Качество видео: WEB-DLRip
Видеокодек: Xvid
Битрейт видео: ~2055 kbps
Размер кадра: 720x384 (1.88:1), 23.976 fps
Аудиокодек: AC3 5.1
Битрейт аудио: 384 kbps, 48 kHz
Сэмпл: Скачать

MediaInfo:

Общее
Полное имя: C:\Users\я\Documents\Торент\Black.rock.2012.P.WEBDLRip.1400MB.avi
Формат: AVI
Формат/Информация: Audio Video Interleave
Размер файла: 1,37 Гбайт
Продолжительность: 1 ч. 19 м.
Общий поток: 2449 Кбит/сек
Программа кодирования: VirtualDubMod 1.5.10.3
Библиотека кодирования: VirtualDubMod build 2550/release
Видео
Идентификатор: 0
Формат: MPEG-4 Visual
Профиль формата: Advanced Simple@L5
Параметр BVOP формата: 2
Параметр QPel формата: Нет
Параметр GMC формата: Без точки перехода
Параметр матрицы формата: Выборочная
Идентификатор кодека: XVID
Идентификатор кодека/Подсказка: XviD
Продолжительность: 1 ч. 19 м.
Битрейт: 2056 Кбит/сек
Ширина: 720 пикселей
Высота: 384 пикселя
Соотношение сторон: 1,85:1
Частота кадров: 23,976 кадра/сек
Цветовое пространство: YUV
Субдискретизация насыщенности: 4:2:0
Битовая глубина: 8 бит
Тип развёртки: Прогрессивная
Метод сжатия: С потерями
Бит/(Пиксели*Кадры): 0.310
Размер потока: 1,15 Гбайт (84%)
Библиотека кодирования: XviD 1.2.1 (UTC 2008-12-04)
Аудио
Идентификатор : 1
Формат: AC-3
Формат/Информация: Audio Coding 3
Расширение режима: CM (complete main)
Параметр Endianness формата: Big
Идентификатор кодека: 2000
Продолжительность: 1 ч. 19 м.
Вид битрейта: Постоянный
Битрейт: 384 Кбит/сек
Каналы: 6 каналов
Расположение каналов: Front: L C R, Side: L R, LFE
Частота: 48,0 КГц
Битовая глубина: 16 бит
Метод сжатия: С потерями
Размер потока: 219 Мбайт (16%)
Выравнивание: Разделение по промежуткам
Продолжительность промежутка: 42 мс. (1,00 видеокадр)
Время предзагрузки промежутка: 500 мс.
Скриншоты:

Время раздачи: 24/7 По возможности

[Цитировать]

Топик был перенесен из форума Новинки кинопроката в форум Ужасы
Henkok



Показать сообщения:    

Текущее время: 08-Дек 21:17

Часовой пояс: UTC + 3


Вы не можете начинать темы
Вы не можете отвечать на сообщения
Вы не можете редактировать свои сообщения
Вы не можете удалять свои сообщения
Вы не можете голосовать в опросах
Вы не можете прикреплять файлы к сообщениям
Вы не можете скачивать файлы

!ВНИМАНИЕ!
Сайт не предоставляет электронные версии произведений, а занимается лишь коллекционированием и каталогизацией ссылок, присылаемых и публикуемых на форуме нашими читателями. Если вы являетесь правообладателем какого-либо представленного материала и не желаете, чтобы ссылка на него находилась в нашем каталоге, свяжитесь с нами, и мы незамедлительно удалим ее. Файлы для обмена на трекере предоставлены пользователями сайта, и администрация не несет ответственности за их содержание. Просьба не заливать файлы, защищенные авторскими правами, а также файлы нелегального содержания!