[ Сегодня идет свободное скачивание без начисления Download ]


Статистика раздачи
Нет
 
   
 
Top  
 
 
-Последнее изгнание дьявола: Второе пришествие / The Last Exorcism Part II (2013) BDRip- Русское название: Последнее изгнание дьявола: Второе пришествие
Оригинальное название: The Last Exorcism Part II
Год выпуска: 2013
Производство: США / Arcade Pictures, Strike Entertainment, Studio Canal
Жанр: Ужасы, Триллер
Перевод: Любительский (одноголосый закадровый) (Doctor_Joker)
Субтитры: Вшитые отключаемые
Язык субтитров: Русский, Английский (полные, SDH цветные)
Дата мировой премьеры: 1 марта 2013
Дата российской премьеры: 1 марта 2013, «West»
Режиссер: Эд Гасс-Доннели
Актеры: Эшли Белл, Джулия Гарнер, Спенсер Трит Кларк, Дэвид Дженсен, Тара Риггз, Луис Хертэм, Мьюз Уотсон, Эрика Мишель, Шэрис А. Уильямс, Бояна Бальта
Описание фильма:
Нелл находят в лесу — грязную и напуганную, только что сбежавшую со страшного ритуала. Вся ее семья погибла и девушку отправляют в Новый Орлеан — приют для девочек. Там она попадает под присмотр терапевта Фрэнка Мерле. Жизнь вроде бы налаживается, Нелл влюбляется в местного мальчика, но в самый неподходящий момент демон вновь объявляется и овладевает Нелл. Теперь он хочет от нее нечто большее…

Продолжительность: 01:30:22
Качество видео: BDRip-AVC
Видео: MPEG-4 AVC/H.264, 1032x430 (2,40:1), 23,976 fps, 1336 Кbps, 0.126 bit/pixel
Аудио#1: 48 kHz, AC3 Dolby Digital, 3/2 (L,C,R,l,r) + LFE ch, 448.00 kbps | Русский
Аудио#2: 48 kHz, AC3 Dolby Digital, 3/2 (L,C,R,l,r) + LFE ch, 448.00 kbps | Английский

MI

Общее
Уникальный идентификатор : 195730146352505497663581140098413592926 (0x93404146E40F40C697DE3010FC49815E)
Полное имя : Posledneje.Izgnanije.D'javola.II.Prishestvije.UNRATED.2013.L1.BDRip.x264.potroks.mkv
Формат : Matroska
Версия формата : Version 2
Размер файла : 1,44 Гбайт
Продолжительность : 1 ч. 30 м.
Общий поток : 2278 Кбит/сек
Название фильма : -=POTROKS=-
Дата кодирования : UTC 2013-06-07 19:58:58
Программа кодирования : mkvmerge v5.9.0 ('On The Loose') built on Dec 15 2012 16:39:58
Библиотека кодирования : libebml v1.3.0 + libmatroska v1.4.0
Видео
Идентификатор : 1
Формат : AVC
Формат/Информация : Advanced Video Codec
Профиль формата : [email protected]
Параметр CABAC формата : Да
Параметр ReFrames формата : 10 кадров
Идентификатор кодека : V_MPEG4/ISO/AVC
Продолжительность : 1 ч. 30 м.
Битрейт : 1336 Кбит/сек
Номинальный битрейт : 1427 Кбит/сек
Ширина : 1032 пикселя
Высота : 430 пикселей
Соотношение сторон : 2,40:1
Режим частоты кадров : Постоянный
Частота кадров : 23,976 кадра/сек
Цветовое пространство : YUV
Субдискретизация насыщенности : 4:2:0
Битовая глубина : 8 бит
Тип развёртки : Прогрессивная
Бит/(Пиксели*Кадры) : 0.126
Размер потока : 864 Мбайт (59%)
Заголовок : The Last Exorcism Part II
Библиотека кодирования : x264 core 125 r2208 d9d2288
Настройки программы : cabac=1 / ref=10 / deblock=1:-2:-1 / analyse=0x3:0x133 / me=umh / subme=11 / psy=1 / psy_rd=1.06:0.02 / mixed_ref=1 / me_range=32 / chroma_me=1 / trellis=2 / 8x8dct=1 / cqm=0 / deadzone=21,11 / fast_pskip=0 / chroma_qp_offset=-3 / threads=9 / lookahead_threads=1 / sliced_threads=0 / nr=0 / decimate=1 / interlaced=0 / bluray_compat=0 / constrained_intra=0 / bframes=11 / b_pyramid=2 / b_adapt=2 / b_bias=0 / direct=3 / weightb=1 / open_gop=0 / weightp=2 / keyint=240 / keyint_min=23 / scenecut=40 / intra_refresh=0 / rc_lookahead=150 / rc=2pass / mbtree=1 / bitrate=1427 / ratetol=1.0 / qcomp=0.70 / qpmin=0 / qpmax=69 / qpstep=4 / cplxblur=20.0 / qblur=0.5 / vbv_maxrate=20000 / vbv_bufsize=20000 / nal_hrd=none / ip_ratio=1.35 / aq=2:0.80
Язык : English
Default : Да
Forced : Нет
Аудио #1
Идентификатор : 2
Формат : AC-3
Формат/Информация : Audio Coding 3
Расширение режима : CM (complete main)
Параметр Endianness формата : Big
Идентификатор кодека : A_AC3
Продолжительность : 1 ч. 30 м.
Вид битрейта : Постоянный
Битрейт : 448 Кбит/сек
Каналы : 6 каналов
Расположение каналов : Front: L C R, Side: L R, LFE
Частота : 48,0 КГц
Битовая глубина : 16 бит
Метод сжатия : С потерями
Размер потока : 290 Мбайт (20%)
Заголовок : VO | DD 5.1 @ 448 kbps - Doctor_Joker
Язык : Russian
Default : Да
Forced : Да
Аудио #2
Идентификатор : 3
Формат : AC-3
Формат/Информация : Audio Coding 3
Расширение режима : CM (complete main)
Параметр Endianness формата : Big
Идентификатор кодека : A_AC3
Продолжительность : 1 ч. 30 м.
Вид битрейта : Постоянный
Битрейт : 448 Кбит/сек
Каналы : 6 каналов
Расположение каналов : Front: L C R, Side: L R, LFE
Частота : 48,0 КГц
Битовая глубина : 16 бит
Метод сжатия : С потерями
Размер потока : 290 Мбайт (20%)
Заголовок : Original | DD 5.1 @ 448 kbps
Язык : English
Default : Нет
Forced : Нет
Текст #1
Идентификатор : 4
Формат : UTF-8
Идентификатор кодека : S_TEXT/UTF8
Идентификатор кодека/Информация : UTF-8 Plain Text
Язык : Russian
Default : Нет
Forced : Нет
Текст #2
Идентификатор : 5
Формат : UTF-8
Идентификатор кодека : S_TEXT/UTF8
Идентификатор кодека/Информация : UTF-8 Plain Text
Заголовок : FULL
Язык : English
Default : Нет
Forced : Нет
Текст #3
Идентификатор : 6
Формат : UTF-8
Идентификатор кодека : S_TEXT/UTF8
Идентификатор кодека/Информация : UTF-8 Plain Text
Заголовок : SDH / COLOR
Язык : English
Default : Нет
Forced : Нет
Меню
00:00:00.000 : en:
00:06:12.622 : en:
00:11:26.018 : en:
00:14:43.299 : en:
00:19:38.886 : en:
00:24:59.789 : en:
00:31:17.542 : en:
00:37:41.425 : en:
00:43:02.580 : en:
00:47:13.539 : en:
00:52:04.246 : en:
00:57:30.905 : en:
01:03:30.139 : en:
01:09:57.484 : en:
01:14:28.755 : en:
01:21:00.188 : en:
Скриншоты:


Время раздачи: 24/7

[Цитировать]

Топик был перенесен из форума Новинки кинопроката в форум Ужасы
Henkok



Показать сообщения:    

Текущее время: 06-Дек 20:56

Часовой пояс: UTC + 3


Вы не можете начинать темы
Вы не можете отвечать на сообщения
Вы не можете редактировать свои сообщения
Вы не можете удалять свои сообщения
Вы не можете голосовать в опросах
Вы не можете прикреплять файлы к сообщениям
Вы не можете скачивать файлы

!ВНИМАНИЕ!
Сайт не предоставляет электронные версии произведений, а занимается лишь коллекционированием и каталогизацией ссылок, присылаемых и публикуемых на форуме нашими читателями. Если вы являетесь правообладателем какого-либо представленного материала и не желаете, чтобы ссылка на него находилась в нашем каталоге, свяжитесь с нами, и мы незамедлительно удалим ее. Файлы для обмена на трекере предоставлены пользователями сайта, и администрация не несет ответственности за их содержание. Просьба не заливать файлы, защищенные авторскими правами, а также файлы нелегального содержания!