[ Сегодня идет свободное скачивание без начисления Download ]


Статистика раздачи
Нет
 
   
 
Top  
 
 
-Дрифт / Drift (2013) HDRip- Русское название: Дрифт
Оригинальное название: Drift
Год выпуска: 2013
Производство: Австралия
Жанр: Драма, Спорт
Перевод: Двуголосый закадровый, любительский
Дата мировой премьеры: 25 апреля 2013
Дата российской премьеры: 29 августа 2013, «Top Film Distribution»
Режиссер: Бен Нотт, Морган О’Нил
Продюсер: Мишель Беннетт, Тим Даффи, Майлс Поллард
Актеры: Майлс Поллард, Завьер Сэмюэл, Сэм Уортингтон, Лесли-Энн Брандт, Робин Малкольм, Шон Кинэн, Стив Бастони, Аарон Гленнэйн, Бен Мортли, Дэвид Боуэрс
Описание фильма:
Действие фильма развивается в Австралии 70-х. Главные герои — братья Фишер. Энди и Джимми больше всего на свете любят оседлать волну побольше. Когда Фишеры были маленькими, их мать переехала из Сиднея в небольшой прибрежный городок Маргарет-Ривер, славящийся своим прибоем. На протяжении 12 лет мальчики развивали свои серферские способности в поисках идеальной волны. Но, несмотря на свой талант, свободолюбивый Джимми пытается помочь семье выбраться из долгов и начинает скатываться в криминальный мир. Тогда Энди принимает важное решение. Он увольняется с работы и помогает младшему брату начать бизнес по продаже снаряжения для серфинга.

Продолжительность: 01:53:18
Качество видео: HDRip
Видеокодек: Xvid
Битрейт видео: ~1383 kb/s
Размер кадра: 720x304
Аудиокодек: AC3 5.1
Битрейт аудио: 448 kb/s

MediaInfo:

Общее
Полное имя : C:Торренты\Дрифт2013.HDRip.avi
Формат : AVI
Формат/Информация : Audio Video Interleave
Размер файла : 1,46 Гбайт
Продолжительность : 1 ч. 53 м.
Общий поток : 1840 Кбит/сек
Программа кодирования : VirtualDubMod 1.5.10.2 (build 2540/release)
Библиотека кодирования : VirtualDubMod build 2540/release
Видео
Идентификатор : 0
Формат : MPEG-4 Visual
Профиль формата : Advanced [email protected]
Параметр BVOP формата : 2
Параметр QPel формата : Нет
Параметр GMC формата : Без точки перехода
Параметр матрицы формата : Default (MPEG)
Идентификатор кодека : XVID
Идентификатор кодека/Подсказка : XviD
Продолжительность : 1 ч. 53 м.
Битрейт : 1383 Кбит/сек
Ширина : 720 пикселей
Высота : 304 пикселя
Соотношение сторон : 2,35:1
Частота кадров : 24,000 кадра/сек
Цветовое пространство : YUV
Субдискретизация насыщенности : 4:2:0
Битовая глубина : 8 бит
Тип развёртки : Прогрессивная
Метод сжатия : С потерями
Бит/(Пиксели*Кадры) : 0.263
Размер потока : 1,09 Гбайт (75%)
Библиотека кодирования : XviD 1.2.1 (UTC 2008-12-04)
Аудио
Идентификатор : 1
Формат : AC-3
Формат/Информация : Audio Coding 3
Расширение режима : CM (complete main)
Параметр Endianness формата : Big
Идентификатор кодека : 2000
Продолжительность : 1 ч. 53 м.
Вид битрейта : Постоянный
Битрейт : 448 Кбит/сек
Каналы : 6 каналов
Расположение каналов : Front: L C R, Side: L R, LFE
Частота : 48,0 КГц
Битовая глубина : 16 бит
Метод сжатия : С потерями
Размер потока : 363 Мбайт (24%)
Выравнивание : Разделение по промежуткам
Продолжительность промежутка : 42 мс. (1,00 видеокадр)
Время предзагрузки промежутка : 500 мс.
Скриншоты:

[Цитировать]



Показать сообщения:    

Текущее время: 05-Дек 19:39

Часовой пояс: UTC + 3


Вы не можете начинать темы
Вы не можете отвечать на сообщения
Вы не можете редактировать свои сообщения
Вы не можете удалять свои сообщения
Вы не можете голосовать в опросах
Вы не можете прикреплять файлы к сообщениям
Вы не можете скачивать файлы

!ВНИМАНИЕ!
Сайт не предоставляет электронные версии произведений, а занимается лишь коллекционированием и каталогизацией ссылок, присылаемых и публикуемых на форуме нашими читателями. Если вы являетесь правообладателем какого-либо представленного материала и не желаете, чтобы ссылка на него находилась в нашем каталоге, свяжитесь с нами, и мы незамедлительно удалим ее. Файлы для обмена на трекере предоставлены пользователями сайта, и администрация не несет ответственности за их содержание. Просьба не заливать файлы, защищенные авторскими правами, а также файлы нелегального содержания!