[ Сегодня идет свободное скачивание без начисления Download ]


Статистика раздачи
Нет
 
   
 
Top  
 
 
-Измеряя мир / Die Vermessung der Welt (2012) BDRip-- Русское название: Измеряя мир
Оригинальное название: Die Vermessung der Welt
Год выпуска: 2012
Производство: Германия
Жанр: Приключения, Драма
Перевод: Дублированный [лицензия]
Субтитры: Вшитые отключаемые
Язык субтитров: Английский, немецкий
Дата мировой премьеры: 25 октября 2012
Дата российской премьеры: 11 апреля 2013, «Кино без границ»
Дата выхода DVD релиза: 17 июня 2013, «Новый Диск»
Режиссер: Детлев Бук
Продюсер: Клаус Бойе, Детлев Бук, Петер Виртензон
Актеры: Флориан Давид Фиц, Альбрехт Шух, Балданпурев Самбуу, Аги Ариунсэйчан Даваачу, Жереми Капон, Вики Крипс, Карл Марковиц, Леннарт Хансель, Ядеа ...-Описание фильма:
Аристократу Александру фон Гумбольдту было с рождения предначертано наслаждаться жизнью в родовом замке, выезжать на светские рауты и охоту, а по выходным посещать церковь. Но он с детства мечтал о путешествиях.
Сыну бедняков Карлу Гауссу было с рождения предначертано повторить нелёгкую судьбу родителей. Но школьный учитель распознал его гений и выхлопотал стипендию для учебы в гимназии.
Александр Фон Гумбольдт путешествовал всю свою жизнь, постигая мир через собственный опыт и наблюдения — и мир приобрел учёного-энциклопедиста и основателя множества областей науки. Карл Гаусс всю жизнь прожил в Брауншвайге и Гёттингене, что не помешало ему изобрести теорию чисел и стать одним из величайших математиков всех времен. В 1828 году два исследователя и покорителя мира встретятся на Первом Всемирном конгрессе в Берлине…-
Продолжительность: 02:02:56
Качество видео: BDRip 720p
Видеокодек: MPEG-4 AVC/H.264
Битрейт видео: ~7311 Kbps
Размер кадра: 1280*690
Аудио #1: AC3 5.1, 448 Kbps, русский
Аудио #2: DTS 5.1, 1509 Kbps, немецкий
Главы сохранены

MediaInfo:

General
Unique ID                                : 237468420054005962791824729357776934108 (0xB2A6C10CE2205563A3FD9F8A165D54DC)
Complete name                            : :\\Izmerjaja.mir.2012.D.BDRip.720p.mkv
Format                                   : Matroska
Format version                           : Version 2
File size                                : 8.12 GiB
Duration                                 : 2h 2mn
Overall bit rate                         : 9 456 Kbps
Movie name                               : IRONCLUB
Encoded date                             : UTC 2013-06-14 15:27:08
Writing application                      : mkvmerge v5.2.0 ('I can't explain') built on Dec 18 2011 18:12:03
Writing library                          : libebml v1.2.3 + libmatroska v1.3.0
Video
ID                                       : 1
Format                                   : AVC
Format/Info                              : Advanced Video Codec
Format profile                           : [url=mailto:High@L4.1]High@L4.1[/url]
Format settings, CABAC                   : Yes
Format settings, ReFrames                : 9 frames
Codec ID                                 : V_MPEG4/ISO/AVC
Duration                                 : 2h 2mn
Bit rate                                 : 7 311 Kbps
Width                                    : 1 280 pixels
Height                                   : 690 pixels
Display aspect ratio                     : 1.85:1
Frame rate mode                          : Constant
Frame rate                               : 23.976 fps
Color space                              : YUV
Chroma subsampling                       : 4:2:0
Bit depth                                : 8 bits
Scan type                                : Progressive
Bits/(Pixel*Frame)                       : 0.345
Stream size                              : 6.28 GiB (77%)
Title                                    : Die.Vermessung.der.Welt.2012.720p.BluRay.DTS.x264-EbP
Language                                 : German
Default                                  : Yes
Forced                                   : Yes
Audio #1
ID                                       : 2
Format                                   : AC-3
Format/Info                              : Audio Coding 3
Mode extension                           : CM (complete main)
Format settings, Endianness              : Big
Codec ID                                 : A_AC3
Duration                                 : 2h 2mn
Bit rate mode                            : Constant
Bit rate                                 : 448 Kbps
Channel(s)                               : 6 channels
Channel positions                        : Front: L C R, Side: L R, LFE
Sampling rate                            : 48.0 KHz
Bit depth                                : 16 bits
Compression mode                         : Lossy
Stream size                              : 394 MiB (5%)
Title                                    : DD 5.1 @ 448 kbps - Dub, R5
Language                                 : Russian
Default                                  : Yes
Forced                                   : Yes
Audio #2
ID                                       : 3
Format                                   : DTS
Format/Info                              : Digital Theater Systems
Mode                                     : 16
Format settings, Endianness              : Big
Codec ID                                 : A_DTS
Duration                                 : 2h 2mn
Bit rate mode                            : Constant
Bit rate                                 : 1 509 Kbps
Channel(s)                               : 6 channels
Channel positions                        : Front: L C R, Side: L R, LFE
Sampling rate                            : 48.0 KHz
Bit depth                                : 24 bits
Compression mode                         : Lossy
Stream size                              : 1.30 GiB (16%)
Title                                    : DTS 5.1 @ 1536 kbps
Language                                 : German
Default                                  : No
Forced                                   : No
Text #1
ID                                       : 4
Format                                   : UTF-8
Codec ID                                 : S_TEXT/UTF8
Codec ID/Info                            : UTF-8 Plain Text
Language                                 : English
Default                                  : No
Forced                                   : No
Text #2
ID                                       : 5
Format                                   : UTF-8
Codec ID                                 : S_TEXT/UTF8
Codec ID/Info                            : UTF-8 Plain Text
Language                                 : German
Default                                  : No
Forced                                   : No
Menu
00:00:00.000                             : en:00:00:00.000
00:12:05.475                             : en:00:12:05.475
00:20:29.812                             : en:00:20:29.812
00:31:42.275                             : en:00:31:42.275
00:42:16.325                             : en:00:42:16.325
00:52:51.794                             : en:00:52:51.794
01:01:46.620                             : en:01:01:46.620
01:12:15.540                             : en:01:12:15.540
01:24:07.042                             : en:01:24:07.042
01:35:39.025                             : en:01:35:39.025
01:44:35.519                             : en:01:44:35.519
01:54:44.544                             : en:01:54:44.544
Скриншоты: Время раздачи: 24/7 до 3-х скачавших

[Цитировать]

Топик был перенесен из форума Новинки кинопроката (HD Video) в форум Зарубежное кино (HD Video)
Bootch



Показать сообщения:    

Текущее время: 07-Дек 13:38

Часовой пояс: UTC + 3


Вы не можете начинать темы
Вы не можете отвечать на сообщения
Вы не можете редактировать свои сообщения
Вы не можете удалять свои сообщения
Вы не можете голосовать в опросах
Вы не можете прикреплять файлы к сообщениям
Вы не можете скачивать файлы

!ВНИМАНИЕ!
Сайт не предоставляет электронные версии произведений, а занимается лишь коллекционированием и каталогизацией ссылок, присылаемых и публикуемых на форуме нашими читателями. Если вы являетесь правообладателем какого-либо представленного материала и не желаете, чтобы ссылка на него находилась в нашем каталоге, свяжитесь с нами, и мы незамедлительно удалим ее. Файлы для обмена на трекере предоставлены пользователями сайта, и администрация не несет ответственности за их содержание. Просьба не заливать файлы, защищенные авторскими правами, а также файлы нелегального содержания!