[ Сегодня идет свободное скачивание без начисления Download ]


Статистика раздачи
Нет
 
   
 
 
 
-Джуниор / Junior (1994) BDRip.[1080p.]H264- Русское название: Джуниор
Оригинальное название: Junior
Год выпуска: 1994
Жанр: Комедия, Семейный
Описание фильма:
Ученые-медики Алекс Хесс и Ларри Арбогаст работают над уникальным препаратом, который должен помочь женщинам избежать выкидышей. Когда финансирование исследований прекращается, друзья принимают неординарное решение, чтобы проверить эффективность изобретенного ими средства. Выкрав замороженную женскую яйцеклетку, Арбогаст вводит ее в тело Хесса, который согласился вынашивать младенца…
Режиссер: Айвен Райтман
Актеры: Арнольд Шварценеггер, Дэнни Де Вито, Эмма Томпсон, Фрэнк Ланджелла, Памела Рид , Аида Туртурро, Джеймс Экхауз, Меган Кэвэна, Уэлкер Уайт, Мерл Кеннеди, Кэтлин Чэлфэнт, Джуди Коллинз
Продолжительность: 01:50:01
Перевод: Профессиональный многоголосый (СТС),одноголосый закадровый А.Гаврилов
Язык субтитров: Английский
Вид субтитров: Вшитые подключаемые

Дата мировой премьеры: 23 ноября 1994
Дата выхода DVD релиза: 21 октября 2008, «Мьюзик-Трейд»
Видеокодек: MPEG-4 AVC/H.264
Битрейт видео: ~7965 kb/s
Размер кадра: 1920x1040
Качество видео: BDRip 1080p
Аудиокодек: AC3 2.0
Аудио 1: Английский DTS-HD Master Audio 6 ch / English /1510 kb/s /48,0 КГц / 24 бит оригинал
Аудио 2: Русский AC3 2.0 /192 kb/s /48,0 КГц /16 бит Профессиональный многоголосый (СТС)
Аудио 3: Русский AC3 6 ch /448 kb/s /48,0 КГц /16 бит Авторский одноголосый (А.Гаврилов)
Сэмпл: Ссылка

Дополнительно

Исходное видео http://www.blu-ray.com/movies/Junior-Blu-ray/67509/ ,для гурманов добавлен Гаврилов,оригинальные чаптеры сохранены.

MediaInfo

Общее
Уникальный идентификатор : 203436398075105462295793714620151752434 (0x990C6CD23F335104B4E5AB920D29E6F2)
Полное имя : Джуниор_Junior.1994.1080p.BDRip.x264.mkv
Формат : Matroska
Версия формата : Version 4 / Version 2
Размер файла : 7,93 Гбайт
Продолжительность : 1 ч. 50 м.
Общий поток : 10,3 Мбит/сек
Название фильма : Джуниор 1994.
Дата кодирования : UTC 2013-06-13 18:06:13
Программа кодирования : mkvmerge v6.2.0 ('Promised Land') built on Apr 28 2013 12:22:01
Библиотека кодирования : libebml v1.3.0 + libmatroska v1.4.0
Видео
Идентификатор : 1
Формат : AVC
Формат/Информация : Advanced Video Codec
Профиль формата : [email protected]
Параметр CABAC формата : Да
Параметр ReFrames формата : 4 кадра
Идентификатор кодека : V_MPEG4/ISO/AVC
Продолжительность : 1 ч. 50 м.
Битрейт : 7965 Кбит/сек
Ширина : 1920 пикселей
Высота : 1040 пикселей
Соотношение сторон : 1,85:1
Частота кадров : 23,976 кадра/сек
Цветовое пространство : YUV
Субдискретизация насыщенности : 4:2:0
Битовая глубина : 8 бит
Тип развёртки : Прогрессивная
Бит/(Пиксели*Кадры) : 0.166
Размер потока : 6,12 Гбайт (77%)
Заголовок : Джуниор (1994)
Библиотека кодирования : x264 core 132 r2310 76a5c3a
Настройки программы : cabac=1 / ref=4 / deblock=1:-1:-1 / analyse=0x3:0x133 / me=umh / subme=7 / psy=1 / psy_rd=1.00:0.15 / mixed_ref=1 / me_range=16 / chroma_me=1 / trellis=1 / 8x8dct=1 / cqm=0 / deadzone=21,11 / fast_pskip=0 / chroma_qp_offset=-3 / threads=12 / lookahead_threads=2 / sliced_threads=0 / nr=0 / decimate=1 / interlaced=0 / bluray_compat=0 / constrained_intra=0 / bframes=3 / b_pyramid=2 / b_adapt=1 / b_bias=0 / direct=3 / weightb=1 / open_gop=0 / weightp=2 / keyint=240 / keyint_min=23 / scenecut=40 / intra_refresh=0 / rc_lookahead=40 / rc=crf / mbtree=1 / crf=20.0 / qcomp=0.60 / qpmin=0 / qpmax=69 / qpstep=4 / vbv_maxrate=62500 / vbv_bufsize=78125 / crf_max=0.0 / nal_hrd=none / ip_ratio=1.40 / aq=1:1.00
Язык : German
Default : Да
Forced : Нет
Аудио #1
Идентификатор : 2
Формат : DTS
Формат/Информация : Digital Theater Systems
Идентификатор кодека : A_DTS
Продолжительность : 1 ч. 50 м.
Вид битрейта : Постоянный
Битрейт : 1510 Кбит/сек
Каналы : 6 каналов
Расположение каналов : Front: L C R, Side: L R, LFE
Частота : 48,0 КГц
Битовая глубина : 24 бит
Метод сжатия : С потерями
Размер потока : 1,16 Гбайт (15%)
Заголовок : DTS
Язык : English
Default : Нет
Forced : Нет
Аудио #2
Идентификатор : 3
Формат : AC-3
Формат/Информация : Audio Coding 3
Расширение режима : CM (complete main)
Параметр Endianness формата : Big
Идентификатор кодека : A_AC3
Продолжительность : 1 ч. 50 м.
Вид битрейта : Постоянный
Битрейт : 192 Кбит/сек
Каналы : 2 канала
Расположение каналов : Front: L R
Частота : 48,0 КГц
Битовая глубина : 16 бит
Метод сжатия : С потерями
Размер потока : 151 Мбайт (2%)
Заголовок : Профессиональный многоголосый (СТС)
Язык : Russian
Default : Да
Forced : Нет
Аудио #3
Идентификатор : 4
Формат : AC-3
Формат/Информация : Audio Coding 3
Расширение режима : CM (complete main)
Параметр Endianness формата : Big
Идентификатор кодека : A_AC3
Продолжительность : 1 ч. 50 м.
Вид битрейта : Постоянный
Битрейт : 448 Кбит/сек
Каналы : 6 каналов
Расположение каналов : Front: L C R, Side: L R, LFE
Частота : 48,0 КГц
Битовая глубина : 16 бит
Метод сжатия : С потерями
Размер потока : 353 Мбайт (4%)
Заголовок : Авторский одноголосый (А.Гаврилов)
Язык : Russian
Default : Нет
Forced : Нет
Текст
Идентификатор : 5
Формат : VobSub
Режим смешивания : zlib
Идентификатор кодека : S_VOBSUB
Идентификатор кодека/Информация : The same subtitle format used on DVDs
Язык : English
Default : Нет
Forced : Нет
Меню
00:00:00.000 : de:00:00:00.000
00:04:48.955 : de:00:04:48.955
00:12:53.272 : de:00:12:53.272
00:23:31.243 : de:00:23:31.243
00:34:35.365 : de:00:34:35.365
00:40:19.208 : de:00:40:19.208
01:02:21.988 : de:01:02:21.988
01:11:59.774 : de:01:11:59.774
01:25:02.597 : de:01:25:02.597
01:33:07.999 : de:01:33:07.999
01:39:08.526 : de:01:39:08.526
01:43:40.798 : de:01:43:40.798

Рецензия от kateRM

Поистине, человек Арнольд Шварценеггер — настоящий мастер на все руки: бодибилдер, образец для подражания, промоутер здорового образа жизни, ресторатор, губернатор, в конце-концов! Но и актер Арнольд Шварценеггер также не менее универсален: герой боевика, тайный агент, хороший коп, несгибаемый терминатор, брат-близнец Дэнни ДеВито (кто бы сомневался, они же похожи, как две капли воды). И вот Вам, пожалуйста — беременный мэн. Кто-то скажет: «Докатились! Что за бред сивой кобылы?! Ничего нелепей не могли придумать?» То же самое и про Джордано Бруно говорили, когда еще якобы плоская Земля стояла на черепахе и китах… Бедного итальянского просветителя предали очищающему огню. Само собой, в наш век гуманизма и айпэдов с милягой Арни такой дикости не сотворили, открыто никто не решился. Хотя, полагаю, заочно, через желтую и других цветов прессу мускулистый австриец с сексуальной квадратной челюстью получил пару дружеских вербальных зуботычин. Но если попытаться смело заглянуть вперед, кто знает, возможно, в не очень далеком будущем повсеместно рожающие человеческие особи мужского пола будут одобрительно кивать и хвалить за смекалку и позитивно-прогрессивное мышление своих далёких предков из XX века.
Задача авторов «Джуниора» была не столько удивить и озадачить публику, сколько прежде всего развлечь и поднять настроение зрителю и, опять-таки, кто знает, может, вселить в человечество веру в его неограниченные возможности. И еще, наверное, показать, каких сил и трудов стоит произвести на свет новую жизнь.
Только это все домыслы. В реале, вышла очень добрая и весёлая (комедия же) комедия. Дуэт-антоним ДеВито-Шварценеггер настолько симпатичен, насколько же и забавен. А присутствие в фильме Эммы Томпсон не просто красивый штрих, а жирная ретушь. Возникает вопрос: как только авторы уговорили эту серьезную английскую актрису сняться в подобной авантюре? Эмма, между прочим, на тот момент уже имела Оскар за лучшую женскую роль, а через два года после «Джуниора получила его же за лучший адаптированный сценарий. Видимо, именно наличие здорового чувства юмора Эммы и женское любопытство, иного ответа у меня нет. Вообще, помимо Арнольда, Эммы и Дэнни в фильме задействованы замечательные актёры: Фрэнк Ланджелла, олицетворяющий негативную сторону ученого-бюрократа и Памела Рид, преданная поклонница «Aerosmith» добавляют шарма к троице главных героев.
В общем и целом, фильм «Джуниор» бесконечно трогателен и мил. Он однозначно займет удобное местечко в фильмотеке людей с юморком и веселых приколистов. Но, скорее всего, не мужского пола. Сомнительно, что парни, предпочитающие жесткие, крутые боевики или фантастику, станут тратить время на то, чтобы наблюдать как основная масса тела Арни перекочевывает с его мышц рук и ног в сторону брюшной полости. Хотя, по здравому рассуждению, разве не интересно глянуть на трансформацию Арнольда из сильного мужчины в заботливую будущую мамочку-наседку?
Скриншоты: Время раздачи: 24х7 до 5 скачавших далее по возможности

[Цитировать]



Показать сообщения:    

Текущее время: 04-Дек 17:20

Часовой пояс: UTC + 3


Вы не можете начинать темы
Вы не можете отвечать на сообщения
Вы не можете редактировать свои сообщения
Вы не можете удалять свои сообщения
Вы не можете голосовать в опросах
Вы не можете прикреплять файлы к сообщениям
Вы не можете скачивать файлы

!ВНИМАНИЕ!
Сайт не предоставляет электронные версии произведений, а занимается лишь коллекционированием и каталогизацией ссылок, присылаемых и публикуемых на форуме нашими читателями. Если вы являетесь правообладателем какого-либо представленного материала и не желаете, чтобы ссылка на него находилась в нашем каталоге, свяжитесь с нами, и мы незамедлительно удалим ее. Файлы для обмена на трекере предоставлены пользователями сайта, и администрация не несет ответственности за их содержание. Просьба не заливать файлы, защищенные авторскими правами, а также файлы нелегального содержания!