[ Сегодня идет свободное скачивание без начисления Download ]


Статистика раздачи
Нет
 
   
 
Top  
 
 
-Летучий отряд Скотланд-Ярда / The Sweeney (2012) [H.264] BDRip- Русское название: Летучий отряд Скотланд-Ярда
Оригинальное название: The Sweeney
Год выпуска: 2012
Производство: Великобритания / Vertigo Films, Embargo Films
Жанр: Боевик, Драма, Криминал
Описание фильма: Английская полиция прикладывает максимум усилий для того, чтобы преступники были наказаны. Но детектив Джек Риген борется с преступностью по-своему: грязными, нелегальными, жестокими методами…
Режиссер: Ник Лав
Актеры: Рэй Уинстон, Бен Дрю, Хейли Этвелл, Дамиан Льюис, Аллен Лич, Пол Андерсон, Алан Форд, Стивен Макинтош, Стивен Вэддингтон, Кара Тойнтон, Аллан Кордунер, Джесс Лиодин, Ли Крэвен, Джон Дагган, Кэролайн Чикези, Джеймс Майкл Ранкин, Ник Неверн, Чонради Култап, Крис Коулин, Ли Уитлок, Ронни Фокс, Джеймс Коттер, Джон Адам Фриман, Пол Блэкуелл, Эмма Флетчер, Майкл Уилдман
Продолжительность: 01:52:30
Перевод: Многоголосый закадровый, профессиональный (лицензия)
Язык субтитров: Английский
Вид субтитров: Вшитые отключаемые

Дата мировой премьеры: 1 августа 2012
Видеокодек: MPEG-4 AVC/H.264
Битрейт видео: ~2000 Кбит/сек
Размер кадра: 1024 x 424
Качество видео: BDRip-AVC
Аудио 1: AC3 5.1, 448 Кбит/сек, 48,0 КГц, 16 бит| Русский
Аудио 2: AC3 5.1, 384 Кбит/сек, 48,0 КГц, 16 бит| Английский

Mediainfo

Полное имя : The.Sweeney.2012.BDRip.mkv
Формат : Matroska
Версия формата : Version 1
Размер файла : 2,23 Гбайт
Продолжительность : 1 ч. 52 м.
Общий поток : 2838 Кбит/сек
Название фильма : -=NNM-CLUB.RU=-
Дата кодирования : UTC 2013-06-13 17:48:56
Программа кодирования : mkvmerge v2.4.1 ('Use Me') built on Dec 5 2008 18:30:05
Библиотека кодирования : libebml v0.7.7 + libmatroska v0.8.1
Видео
Идентификатор : 1
Формат : AVC
Формат/Информация : Advanced Video Codec
Профиль формата : High@L4.1
Параметр CABAC формата : Да
Параметр ReFrames формата : 12 кадров
Идентификатор кодека : V_MPEG4/ISO/AVC
Продолжительность : 1 ч. 52 м.
Битрейт : 2004 Кбит/сек
Ширина : 1024 пикселя
Высота : 424 пикселя
Соотношение сторон : 2,40:1
Соотношение сторон в оригинале : 2,40:1
Режим частоты кадров : Постоянный
Частота кадров : 23,976 кадра/сек
Цветовое пространство : YUV
Субдискретизация насыщенности : 4:2:0
Битовая глубина : 8 бит
Тип развёртки : Прогрессивная
Бит/(Пиксели*Кадры) : 0.193
Размер потока : 1,53 Гбайт (69%)
Библиотека кодирования : x264 core 119 r2106 07efeb4
Настройки программы : cabac=1 / ref=12 / deblock=1:-3:-3 / analyse=0x3:0x113 / me=umh / subme=11 / psy=1 / psy_rd=1.00:0.00 / mixed_ref=1 / me_range=48 / chroma_me=1 / trellis=2 / 8x8dct=1 / cqm=0 / deadzone=21,11 / fast_pskip=1 / chroma_qp_offset=-2 / threads=12 / sliced_threads=0 / nr=0 / decimate=1 / interlaced=0 / bluray_compat=0 / constrained_intra=0 / bframes=8 / b_pyramid=2 / b_adapt=2 / b_bias=0 / direct=3 / weightb=1 / open_gop=0 / weightp=2 / keyint=250 / keyint_min=20 / scenecut=40 / intra_refresh=0 / rc_lookahead=40 / rc=2pass / mbtree=1 / bitrate=2004 / ratetol=1.0 / qcomp=0.75 / qpmin=0 / qpmax=51 / qpstep=4 / cplxblur=20.0 / qblur=0.5 / ip_ratio=1.40 / aq=1:1.00
Default : Да
Forced : Нет
Аудио #1
Идентификатор : 2
Формат : AC-3
Формат/Информация : Audio Coding 3
Расширение режима : CM (complete main)
Параметр Endianness формата : Big
Идентификатор кодека : A_AC3
Продолжительность : 1 ч. 52 м.
Вид битрейта : Постоянный
Битрейт : 448 Кбит/сек
Каналы : 6 каналов
Расположение каналов : Front: L C R, Side: L R, LFE
Частота : 48,0 КГц
Битовая глубина : 16 бит
Метод сжатия : С потерями
Размер потока : 361 Мбайт (16%)
Заголовок : AC3 5.1 @ 448 Kbps (MVO)
Язык : Russian
Default : Да
Forced : Нет
Аудио #2
Идентификатор : 3
Формат : AC-3
Формат/Информация : Audio Coding 3
Расширение режима : CM (complete main)
Параметр Endianness формата : Big
Идентификатор кодека : A_AC3
Продолжительность : 1 ч. 52 м.
Вид битрейта : Постоянный
Битрейт : 384 Кбит/сек
Каналы : 6 каналов
Расположение каналов : Front: L C R, Side: L R, LFE
Частота : 48,0 КГц
Битовая глубина : 16 бит
Метод сжатия : С потерями
Размер потока : 309 Мбайт (14%)
Заголовок : AC3 5.1 @ 384 Kbps (Original)
Язык : English
Default : Нет
Forced : Нет
Текст
Идентификатор : 4
Формат : UTF-8
Идентификатор кодека : S_TEXT/UTF8
Идентификатор кодека/Информация : UTF-8 Plain Text
Заголовок : English (SDH)
Язык : English
Default : Да
Forced : Нет
Меню
00:00:00.000 : en:Chapter 00
00:02:30.483 : en:Chapter 01
00:08:25.379 : en:Chapter 02
00:14:03.801 : en:Chapter 03
00:18:37.199 : en:Chapter 04
00:23:48.802 : en:Chapter 05
00:30:36.543 : en:Chapter 06
00:39:29.700 : en:Chapter 07
00:51:49.439 : en:Chapter 08
00:56:04.819 : en:Chapter 09
01:02:58.107 : en:Chapter 10
01:06:33.197 : en:Chapter 11
01:13:10.135 : en:Chapter 12
01:16:45.851 : en:Chapter 13
01:22:14.012 : en:Chapter 14
01:26:23.928 : en:Chapter 15
01:29:36.537 : en:Chapter 16
01:35:08.369 : en:Chapter 17
01:41:53.398 : en:Chapter 18
01:49:25.016 : en:Chapter 19
Скриншоты:


Время раздачи: С 12:00 до 2:00 до 10 скачавших

[Цитировать]



Показать сообщения:    

Текущее время: 10-Дек 15:51

Часовой пояс: UTC + 3


Вы не можете начинать темы
Вы не можете отвечать на сообщения
Вы не можете редактировать свои сообщения
Вы не можете удалять свои сообщения
Вы не можете голосовать в опросах
Вы не можете прикреплять файлы к сообщениям
Вы не можете скачивать файлы

!ВНИМАНИЕ!
Сайт не предоставляет электронные версии произведений, а занимается лишь коллекционированием и каталогизацией ссылок, присылаемых и публикуемых на форуме нашими читателями. Если вы являетесь правообладателем какого-либо представленного материала и не желаете, чтобы ссылка на него находилась в нашем каталоге, свяжитесь с нами, и мы незамедлительно удалим ее. Файлы для обмена на трекере предоставлены пользователями сайта, и администрация не несет ответственности за их содержание. Просьба не заливать файлы, защищенные авторскими правами, а также файлы нелегального содержания!