[ Сегодня идет свободное скачивание без начисления Download ]


Статистика раздачи
Нет
 
   
 
Top  
 
 
-Веселый призрак / Living Will... (2010) DVDRip- Русское название: Веселый призрак
Оригинальное название: Living Will...
Год выпуска: 2010
Жанр: Комедия
Описание фильма:
Уилл и Белхер были не просто соседями, но и хорошими друзьями. Они жили душа в душу и отлично ладили, но однажды произошла трагедия: в результате нелепого несчастного случая Белхер скончался. Однако смерть – вовсе не повод покидать лучшего друга. Призрак Белхера вернулся в наш мир, но здесь его ждал неприятный сюрприз – новой соседкой Уилла стала его сестренка Криста, которая никогда не отличалась примерным поведением. Белхер прекрасно понимает, что сестра испортит его приятелю жизнь, да и вообще-то он крайне обижен тем, что Уилл так быстро нашел ему замену. Что ж, настало время показать кто в доме хозяин! Веселый призрак пускается во все тяжкие.
Режиссер: Мэттью Лойер
Актеры: Райан Данн, Эйприл Скотт, Герард Хайц, Ноам Харари, Крис Рэди, Таша Кортни, Камерон Тейлор, Бэм Марджера, Марк Ханна, Патрик Майкл
Продолжительность: 01:42:12
Перевод: Многоголосый закадровый

Видеокодек: Xvid
Битрейт видео: ~1841 kb/s
Размер кадра: 720x304
Качество видео: DVDRip
Аудиокодек: AC3 2.0
Битрейт аудио: 192 kb/s CBR

Mediainfo

Общее
Полное имя : G:\Dowloands\Фильмы\Veselyj.prizrak.2010.P.DVDRip.avi
Формат : AVI
Формат/Информация : Audio Video Interleave
Размер файла : 1,46 Гбайт
Продолжительность : 1 ч. 42 м.
Общий поток : 2043 Кбит/сек
Программа кодирования : VirtualDubMod 1.5.10.3 | www.virtualdub-fr.org || (build 2550/release)
Библиотека кодирования : VirtualDubMod build 2550/release
Видео
Идентификатор : 0
Формат : MPEG-4 Visual
Профиль формата : Advanced Simple@L5
Параметр BVOP формата : 2
Параметр QPel формата : Нет
Параметр GMC формата : Без точки перехода
Параметр матрицы формата : Default (MPEG)
Идентификатор кодека : XVID
Идентификатор кодека/Подсказка : XviD
Продолжительность : 1 ч. 42 м.
Битрейт : 1842 Кбит/сек
Ширина : 720 пикселей
Высота : 304 пикселя
Соотношение сторон : 2,35:1
Частота кадров : 23,976 кадра/сек
Цветовое пространство : YUV
Субдискретизация насыщенности : 4:2:0
Битовая глубина : 8 бит
Тип развёртки : Прогрессивная
Метод сжатия : С потерями
Бит/(Пиксели*Кадры) : 0.351
Размер потока : 1,31 Гбайт (90%)
Библиотека кодирования : XviD 1.2.1 (UTC 2008-12-04)
Аудио
Идентификатор : 1
Формат : AC-3
Формат/Информация : Audio Coding 3
Расширение режима : CM (complete main)
Параметр Endianness формата : Big
Идентификатор кодека : 2000
Продолжительность : 1 ч. 42 м.
Вид битрейта : Постоянный
Битрейт : 192 Кбит/сек
Каналы : 2 канала
Расположение каналов : Front: L R
Частота : 48,0 КГц
Битовая глубина : 16 бит
Метод сжатия : С потерями
Размер потока : 140 Мбайт (9%)
Скриншоты:

Время раздачи: С 18:00 до 24:00

[Цитировать]



Показать сообщения:    

Текущее время: 09-Дек 22:26

Часовой пояс: UTC + 3


Вы не можете начинать темы
Вы не можете отвечать на сообщения
Вы не можете редактировать свои сообщения
Вы не можете удалять свои сообщения
Вы не можете голосовать в опросах
Вы не можете прикреплять файлы к сообщениям
Вы не можете скачивать файлы

!ВНИМАНИЕ!
Сайт не предоставляет электронные версии произведений, а занимается лишь коллекционированием и каталогизацией ссылок, присылаемых и публикуемых на форуме нашими читателями. Если вы являетесь правообладателем какого-либо представленного материала и не желаете, чтобы ссылка на него находилась в нашем каталоге, свяжитесь с нами, и мы незамедлительно удалим ее. Файлы для обмена на трекере предоставлены пользователями сайта, и администрация не несет ответственности за их содержание. Просьба не заливать файлы, защищенные авторскими правами, а также файлы нелегального содержания!