[ Сегодня идет свободное скачивание без начисления Download ]


Статистика раздачи
Нет
 
   
 
 
 
-В плену у космоса / Stranded (2013) BDRip- Русское название: В плену у космоса
Оригинальное название: Stranded
Год выпуска: 2013
Производство: Канада / International Pictures Three
Жанр: Ужасы, Фантастика
Перевод: Любительский (одноголосый) [den904], перевод [Janetta]
Субтитры: Отсутствуют
Режиссер: Роджер Кристиан
Актеры: Кристиан Слэйтер, Брендан Фер, Эми Матисио, Майкл Терриоль
Описание фильма:
Сюжет расскажет про четырех астронавтов, которые оказались изолированы от мира на борту космического корабля и сталкиваются с мистическими явлениями, паранойей и страхом смерти после того, как корабль попадает в метеоритный шторм.

Продолжительность: 01:27:32
Качество видео: BDRip 720p
Видеокодек: MPEG-4 AVC/H.264
Битрейт видео: ~5618 Kbit/s
Размер кадра: 1280 x 536
Aудио #1: AC3, 48,0 КHz, 5.1, 448 Kbit/s (Русский одноголосый)
Aудио #2: DTS, 48,0 КHz, 5.1, 1510 Kbit/s (Оригинальный английский)

MediaInfo

Общее
Уникальный идентификатор : 248826456994909159658821522704535242995 (0xBB323B81BA208E78B5885D7D1425C8F3)
Полное имя : D:\Торренты\В плену у космоса.2013.BDRip.720p.mkv
Формат : Matroska
Размер файла : 4,64 Гбайт
Продолжительность : 1 ч. 27 м.
Общий поток : 7573 Кбит/сек
Дата кодирования : UTC 2013-06-15 20:10:01
Программа кодирования : mkvmerge v2.9.8 ('C'est le bon')
Библиотека кодирования : libebml v0.7.9 + libmatroska v0.8.1
Видео
Идентификатор : 1
Формат : AVC
Формат/Информация : Advanced Video Codec
Профиль формата : [email protected]
Параметр CABAC формата : Да
Параметр ReFrames формата : 5 кадров
Идентификатор кодека : V_MPEG4/ISO/AVC
Продолжительность : 1 ч. 27 м.
Битрейт : 5618 Кбит/сек
Ширина : 1280 пикс.
Высота : 536 пикс.
Соотношение сторон : 2,35:1
Частота кадров : 23,976 кадр/сек
Цветовое пространство : YUV
Подвыборка цветности : 4:2:0
Битовая глубина : 8 бит
Тип развёртки : Прогрессивная
Бит/(Пиксели*Кадры) : 0.342
Размер потока : 3,35 Гбайт (72%)
Заголовок : X264
Библиотека кодирования : x264 core 133 r2334 a3ac64b
Настройки программы : cabac=1 / ref=5 / deblock=1:0:0 / analyse=0x3:0x133 / me=umh / subme=7 / psy=1 / psy_rd=1.00:0.00 / mixed_ref=1 / me_range=16 / chroma_me=1 / trellis=1 / 8x8dct=1 / cqm=0 / deadzone=21,11 / fast_pskip=0 / chroma_qp_offset=-2 / threads=36 / lookahead_threads=4 / sliced_threads=0 / nr=0 / decimate=1 / interlaced=0 / bluray_compat=0 / constrained_intra=0 / bframes=3 / b_pyramid=2 / b_adapt=1 / b_bias=0 / direct=1 / weightb=1 / open_gop=0 / weightp=2 / keyint=250 / keyint_min=23 / scenecut=40 / intra_refresh=0 / rc_lookahead=40 / rc=2pass / mbtree=1 / bitrate=5618 / ratetol=1.0 / qcomp=0.60 / qpmin=0 / qpmax=69 / qpstep=4 / cplxblur=20.0 / qblur=0.5 / ip_ratio=1.40 / aq=1:1.00
Язык : English
Аудио #1
Идентификатор : 2
Формат : AC-3
Формат/Информация : Audio Coding 3
Расширение режима : CM (complete main)
Идентификатор кодека : A_AC3
Продолжительность : 1 ч. 27 м.
Вид битрейта : Постоянный
Битрейт : 448 Кбит/сек
Каналы : 6 каналов
Расположение каналов : Front: L C R, Side: L R, LFE
Частота : 48,0 КГц
Битовая глубина : 16 бит
Метод сжатия : С потерями
Размер потока : 281 Мбайт (6%)
Язык : Russian
Аудио #2
Идентификатор : 3
Формат : DTS
Формат/Информация : Digital Theater Systems
Идентификатор кодека : A_DTS
Продолжительность : 1 ч. 27 м.
Вид битрейта : Постоянный
Битрейт : 1510 Кбит/сек
Каналы : 6 каналов
Расположение каналов : Front: L C R, Side: L R, LFE
Частота : 48,0 КГц
Битовая глубина : 24 бит
Метод сжатия : С потерями
Задержка видео : 11 мс.
Размер потока : 947 Мбайт (20%)
Заголовок : DTS
Язык : English
Меню
00:00:00.000 : en:00:00:00.000
00:14:02.216 : en:00:14:02.216
00:30:50.390 : en:00:30:50.390
00:53:28.622 : en:00:53:28.622
01:07:26.584 : en:01:07:26.584
01:23:43.644 : en:01:23:43.644
Скриншоты:
Время раздачи: 24/7 по возможности

[Цитировать]



Показать сообщения:    

Текущее время: 05-Дек 15:38

Часовой пояс: UTC + 3


Вы не можете начинать темы
Вы не можете отвечать на сообщения
Вы не можете редактировать свои сообщения
Вы не можете удалять свои сообщения
Вы не можете голосовать в опросах
Вы не можете прикреплять файлы к сообщениям
Вы не можете скачивать файлы

!ВНИМАНИЕ!
Сайт не предоставляет электронные версии произведений, а занимается лишь коллекционированием и каталогизацией ссылок, присылаемых и публикуемых на форуме нашими читателями. Если вы являетесь правообладателем какого-либо представленного материала и не желаете, чтобы ссылка на него находилась в нашем каталоге, свяжитесь с нами, и мы незамедлительно удалим ее. Файлы для обмена на трекере предоставлены пользователями сайта, и администрация не несет ответственности за их содержание. Просьба не заливать файлы, защищенные авторскими правами, а также файлы нелегального содержания!