[ Сегодня идет свободное скачивание без начисления Download ]


Статистика раздачи
Нет
 
   
 
Top  
 
 
-Козырной туз / I quattro dell'Ave Maria (1968) DVDRip [H.264] -«The smile that kills...»- Русское название: Козырной туз
Оригинальное название: I quattro dell'Ave Maria
Год выпуска: 1968
Жанр: Комедия, Вестерн
Страна: Италия
Производство: Crono Cinematografica, Finanzia San Marco
Описание фильма:
После того, как Какопоулос ухитрился спастись от виселицы по ложному обвинению, он грабит на крупную сумму Кэта Стивенса и Хатча Бэсси. К тому же крадет их лошадей. В результате развеселого и бесшабашного преследования Стивенс и Бэсси становятся невольными союзниками Какопоулоса в разборках с бандой, подставившей его.
Режиссер: Джузеппе Колицци
Сценарий: Джузеппе Колицци, Бино Чиконья
Продюсер: Бино Чиконья, Джузеппе Колицци
Актеры: Эли Уоллах, Теренс Хилл, Бад Спенсер, Брок Питерс, Кевин МакКарти, Тиффани Хойвелд, Федерико Бойдо, Армандо Бандини, Ливио Лоренцон, Стеффен Захариас
Продолжительность: 02:02:30
Перевод: Одноголосый закадровый
Субтитры: Отсутствуют

Дата мировой премьеры: 31 октября 1968
Видеокодек: MPEG-4 AVC/H.264
Битрейт видео: ~2010 Кбит/сек
Размер кадра: 720x304
Качество видео: DVDRip-AVC
Аудиокодек: AC3 2.0
Битрейт аудио: 192 kbps

MediaInfo:

General
Unique ID : 252197758779946176049954754376979792086 (0xBDBB858492E097648B05FDF6A1C540D6)
Complete name : H:\Downloads\Козырной туз.mkv
Format : Matroska
Format version : Version 4 / Version 2
File size : 1.89 GiB
Duration : 2h 2mn
Overall bit rate : 2 204 Kbps
Encoded date : UTC 2013-06-10 09:10:44
Writing application : mkvmerge v6.0.0 ('Coming Up For Air') built on Jan 20 2013 09:52:00
Writing library : libebml v1.3.0 + libmatroska v1.4.0
Video
ID : 1
Format : AVC
Format/Info : Advanced Video Codec
Format profile : [email protected]
Format settings, CABAC : Yes
Format settings, ReFrames : 8 frames
Codec ID : V_MPEG4/ISO/AVC
Duration : 2h 2mn
Bit rate : 2 010 Kbps
Width : 720 pixels
Height : 304 pixels
Display aspect ratio : 2.35:1
Frame rate mode : Constant
Frame rate : 23.976 fps
Color space : YUV
Chroma subsampling : 4:2:0
Bit depth : 8 bits
Scan type : Progressive
Bits/(Pixel*Frame) : 0.383
Stream size : 1.68 GiB (89%)
Title : I quattro dell'Ave Maria
Writing library : x264 core 125 r2208 d9d2288
Encoding settings : cabac=1 / ref=8 / deblock=1:-1:-1 / analyse=0x3:0x133 / me=umh / subme=9 / psy=1 / psy_rd=1.00:0.10 / mixed_ref=1 / me_range=32 / chroma_me=1 / trellis=2 / 8x8dct=1 / cqm=0 / deadzone=21,11 / fast_pskip=0 / chroma_qp_offset=-3 / threads=6 / lookahead_threads=1 / sliced_threads=0 / nr=0 / decimate=1 / interlaced=0 / bluray_compat=0 / constrained_intra=0 / bframes=3 / b_pyramid=2 / b_adapt=2 / b_bias=0 / direct=3 / weightb=1 / open_gop=0 / weightp=2 / keyint=250 / keyint_min=25 / scenecut=40 / intra_refresh=0 / rc_lookahead=60 / rc=2pass / mbtree=1 / bitrate=2010 / ratetol=1.0 / qcomp=0.60 / qpmin=10 / qpmax=51 / qpstep=4 / cplxblur=20.0 / qblur=0.5 / ip_ratio=1.40 / aq=1:1.00
Language : Italian
Default : Yes
Forced : No
Audio
ID : 2
Format : AC-3
Format/Info : Audio Coding 3
Mode extension : CM (complete main)
Format settings, Endianness : Big
Codec ID : A_AC3
Duration : 2h 2mn
Bit rate mode : Constant
Bit rate : 192 Kbps
Channel(s) : 2 channels
Channel positions : Front: L R
Sampling rate : 48.0 KHz
Bit depth : 16 bits
Compression mode : Lossy
Stream size : 168 MiB (9%)
Title : Профессиональный (одноголосый)
Language : Russian
Default : Yes
Forced : No
Скриншоты: Время раздачи: с 13:00 до 01:00 по Москве (выходные круглосуточно), до 10 скачавших

[Цитировать]



Показать сообщения:    

Текущее время: 04-Дек 09:13

Часовой пояс: UTC + 3


Вы не можете начинать темы
Вы не можете отвечать на сообщения
Вы не можете редактировать свои сообщения
Вы не можете удалять свои сообщения
Вы не можете голосовать в опросах
Вы не можете прикреплять файлы к сообщениям
Вы не можете скачивать файлы

!ВНИМАНИЕ!
Сайт не предоставляет электронные версии произведений, а занимается лишь коллекционированием и каталогизацией ссылок, присылаемых и публикуемых на форуме нашими читателями. Если вы являетесь правообладателем какого-либо представленного материала и не желаете, чтобы ссылка на него находилась в нашем каталоге, свяжитесь с нами, и мы незамедлительно удалим ее. Файлы для обмена на трекере предоставлены пользователями сайта, и администрация не несет ответственности за их содержание. Просьба не заливать файлы, защищенные авторскими правами, а также файлы нелегального содержания!