[ Сегодня идет свободное скачивание без начисления Download ]


Статистика раздачи
Нет
 
   
 
Top  
 
 
-Если... / If... (1968) BDRip [H.264/720p]- Русское название: Если...
Оригинальное название: If...
Год выпуска: 1968
Жанр: Драма, социально-философская притча
Выпущено: Великобритания, Memorial Enterprises
Описание фильма:
"Мы все - одна большая семья!" "У нас в интернате царит дисциплина!" "Наши правила - трудолюбие и покорность!" Лозунги закрытого привилегированного интерната, где учился Мик Трэвис, годились для любой закрытой системы - для армии, тюрьмы, спецПТУ... Поэтому неудивительно, что учитель мог просто, как само собой разумеещееся, сказать - "эй, Джон, пойди, прогрей для меня туалет"... Младшие прогревали туалеты старшим, ученики - учителям... Мик Трэвис был "дедом" и смертельно устал от этого. Когда-нибудь он взорвет эту чертову школу! Грандиозная по своей философской мысли притча о подавлении человеческой личности с самого детства и стихийном бунте против этого подавления, в которой все увидели выражение молодежных волнений конца 60-х. Эта картина даже сейчас, спустя десятилетия, ни на йоту не потеряла своей уникальной мощи в смысле выражения самой сути молодежного кризиса.
Режиссер: Линдсей Андерсон
Актеры: Малкольм МакДауэлл, Ричард Уорвик, Роберт Сванн, Хью Томас, Питер Спрул, Питер Джеффри, Энтони Николлс, Артур Лоу, Мона Уошборн, Дэвид Вуд, Мэри Маклеод, Бен Арис, Грэм Кроуден, Чарльз Ллойд Пэк, Робин Аскуит, Ричард Эверетт, Дэвид Гриффин, Робин Дейвис, Брайан Петтифер, Чарлз Стерридж, Эллис Дэйл, Томми Годфри, Питер Жакс, Саймон Уорд, Шон Бари

Награды:
Золотой глобус, 1970 год
Номинации (1):
* Лучший иностранный фильм на английском языке
Британская академия, 1969 год
Номинации (2):
* Лучший режиссер (Линдсей Андерсон)
* Лучший сценарий
Каннский кинофестиваль, 1969 год
Победитель (1):
* Золотая пальмовая ветвь
Продолжительность: 01:51:46
Оригинальная аудиодорожка: английский
Перевод (1): Профессиональный (многоголосый закадровый) - 5-ый Канал
Перевод (2): Авторский (одноголосый закадровый) - Антон Алексеев
Перевод (3): Авторский (одноголосый закадровый)
Язык субтитров: Русские, английские
Вид субтитров: Вшитые, отключаемые
Видеокодек: MPEG-4 AVC/H.264
Размер кадра: 1200x720
Качество видео: BDRip
Битрейт видео: ~4959 kbps
Аудиокодек и битрейт
Английский - AC3 mono 640 Kbps
Русский (1) - AC3 stereo 192 Kbps
Русский (2) - AC3 stereo 192 Kbps
Русский (3) - AC3 stereo 192 Kbps

MediaInfo

Общее
Уникальный идентификатор                 : 239433352126016639767288524778326239729 (0xB4212FAE5F27371883A4BBB14F04A9F1)
Полное имя                               : If...1968_BDRip.mkv
Формат                                   : Matroska
Версия формата                           : Version 1
Размер файла                             : 4,85 Гбайт
Продолжительность                        : 1 ч. 51 м.
Общий поток                              : 6211 Кбит/сек
Дата кодирования                         : UTC 2011-08-21 16:05:41
Программа кодирования                    : mkvmerge v2.2.0 ('Turn It On Again') built on Mar  4 2008 12:58:26
Библиотека кодирования                   : libebml v0.7.7 + libmatroska v0.8.1
Видео
Идентификатор                            : 1
Формат                                   : AVC
Формат/Информация                        : Advanced Video Codec
Профиль формата                          : [url=mailto:High@L4.1]High@L4.1[/url]
Параметр CABAC формата                   : Да
Параметр ReFrames формата                : 5 кадров
Идентификатор кодека                     : V_MPEG4/ISO/AVC
Продолжительность                        : 1 ч. 51 м.
Битрейт                                  : 4959 Кбит/сек
Ширина                                   : 1200 пикселей
Высота                                   : 720 пикселей
Соотношение сторон                       : 1,667
Режим частоты кадров                     : Постоянный
Частота кадров                           : 23,976 кадра/сек
Цветовое пространство                    : YUV
Субдискретизация насыщенности            : 4:2:0
Битовая глубина                          : 8 бит
Тип развёртки                            : Прогрессивная
Бит/(Пиксели*Кадры)                      : 0.239
Размер потока                            : 3,78 Гбайт (78%)
Библиотека кодирования                   : x264 core 116 r2057 0ba8a9c
Настройки программы                      : cabac=1 / ref=5 / deblock=1:0:0 / analyse=0x3:0x113 / me=umh / subme=8 / psy=1 / psy_rd=1.00:0.00 / mixed_ref=1 / me_range=16 / chroma_me=1 / trellis=1 / 8x8dct=1 / cqm=0 / deadzone=21,11 / fast_pskip=1 / chroma_qp_offset=-2 / threads=12 / sliced_threads=0 / nr=0 / decimate=1 / interlaced=0 / bluray_compat=0 / constrained_intra=0 / bframes=3 / b_pyramid=2 / b_adapt=2 / b_bias=0 / direct=3 / weightb=1 / open_gop=0 / weightp=2 / keyint=240 / keyint_min=24 / scenecut=40 / intra_refresh=0 / rc_lookahead=50 / rc=2pass / mbtree=1 / bitrate=4959 / ratetol=1.0 / qcomp=0.60 / qpmin=0 / qpmax=69 / qpstep=4 / cplxblur=20.0 / qblur=0.5 / ip_ratio=1.40 / aq=1:1.00
Язык                                     : English
Default                                  : Да
Forced                                   : Нет
Аудио #1
Идентификатор                            : 2
Формат                                   : AC-3
Формат/Информация                        : Audio Coding 3
Расширение режима                        : CM (complete main)
Параметр Endianness формата              : Big
Идентификатор кодека                     : A_AC3
Продолжительность                        : 1 ч. 51 м.
Вид битрейта                             : Постоянный
Битрейт                                  : 640 Кбит/сек
Каналы                                   : 1 канал
Расположение каналов                     : Front: C
Частота                                  : 48,0 КГц
Битовая глубина                          : 16 бит
Метод сжатия                             : С потерями
Размер потока                            : 512 Мбайт (10%)
Язык                                     : English
Default                                  : Нет
Forced                                   : Нет
Аудио #2
Идентификатор                            : 5
Формат                                   : AC-3
Формат/Информация                        : Audio Coding 3
Расширение режима                        : CM (complete main)
Параметр Endianness формата              : Big
Идентификатор кодека                     : A_AC3
Продолжительность                        : 1 ч. 51 м.
Вид битрейта                             : Постоянный
Битрейт                                  : 192 Кбит/сек
Каналы                                   : 2 канала
Расположение каналов                     : Front: L R
Частота                                  : 48,0 КГц
Битовая глубина                          : 16 бит
Метод сжатия                             : С потерями
Размер потока                            : 153 Мбайт (3%)
Заголовок                                : 5-ый Канал
Язык                                     : Russian
Default                                  : Да
Forced                                   : Нет
Аудио #3
Идентификатор                            : 6
Формат                                   : AC-3
Формат/Информация                        : Audio Coding 3
Расширение режима                        : CM (complete main)
Параметр Endianness формата              : Big
Идентификатор кодека                     : A_AC3
Продолжительность                        : 1 ч. 51 м.
Вид битрейта                             : Постоянный
Битрейт                                  : 192 Кбит/сек
Каналы                                   : 2 канала
Расположение каналов                     : Front: L R
Частота                                  : 48,0 КГц
Битовая глубина                          : 16 бит
Метод сжатия                             : С потерями
Размер потока                            : 153 Мбайт (3%)
Заголовок                                : Антон Алексеев
Язык                                     : Russian
Default                                  : Нет
Forced                                   : Нет
Аудио #4
Идентификатор                            : 7
Формат                                   : AC-3
Формат/Информация                        : Audio Coding 3
Расширение режима                        : CM (complete main)
Параметр Endianness формата              : Big
Идентификатор кодека                     : A_AC3
Продолжительность                        : 1 ч. 51 м.
Вид битрейта                             : Постоянный
Битрейт                                  : 224 Кбит/сек
Каналы                                   : 2 канала
Расположение каналов                     : Front: L R
Частота                                  : 48,0 КГц
Битовая глубина                          : 16 бит
Метод сжатия                             : С потерями
Размер потока                            : 179 Мбайт (4%)
Заголовок                                : Неизвестный
Язык                                     : Russian
Default                                  : Нет
Forced                                   : Нет
Текст #1
Идентификатор                            : 3
Формат                                   : UTF-8
Идентификатор кодека                     : S_TEXT/UTF8
Идентификатор кодека/Информация          : UTF-8 Plain Text
Язык                                     : English
Default                                  : Да
Forced                                   : Нет
Текст #2
Идентификатор                            : 4
Формат                                   : UTF-8
Идентификатор кодека                     : S_TEXT/UTF8
Идентификатор кодека/Информация          : UTF-8 Plain Text
Язык                                     : Russian
Default                                  : Нет
Forced                                   : Нет
Меню
00:00:00.000                             : en:00:00:00.000
00:20:16.715                             : en:00:20:16.715
00:33:47.108                             : en:00:33:47.108
00:44:04.851                             : en:00:44:04.851
01:01:05.704                             : en:01:01:05.704
01:17:49.957                             : en:01:17:49.957
01:25:56.360                             : en:01:25:56.360
01:40:49.293                             : en:01:40:49.293
01:50:17.361                             : en:01:50:17.361
Скриншоты:
Время раздачи: C 8:00 до 23:00 мск. До первых пяти скачавших.

[Цитировать]



Показать сообщения:    

Текущее время: 11-Дек 05:11

Часовой пояс: UTC + 3


Вы не можете начинать темы
Вы не можете отвечать на сообщения
Вы не можете редактировать свои сообщения
Вы не можете удалять свои сообщения
Вы не можете голосовать в опросах
Вы не можете прикреплять файлы к сообщениям
Вы не можете скачивать файлы

!ВНИМАНИЕ!
Сайт не предоставляет электронные версии произведений, а занимается лишь коллекционированием и каталогизацией ссылок, присылаемых и публикуемых на форуме нашими читателями. Если вы являетесь правообладателем какого-либо представленного материала и не желаете, чтобы ссылка на него находилась в нашем каталоге, свяжитесь с нами, и мы незамедлительно удалим ее. Файлы для обмена на трекере предоставлены пользователями сайта, и администрация не несет ответственности за их содержание. Просьба не заливать файлы, защищенные авторскими правами, а также файлы нелегального содержания!