[ Сегодня идет свободное скачивание без начисления Download ]


Статистика раздачи
Нет
 
   
 
Top  
 
 
-Измеряя мир / Die Vermessung der Welt (2012) BDRip- Русское название: Измеряя мир
Оригинальное название: Die Vermessung der Welt
Год выпуска: 2012
Жанр: Приключения, Драма, ...
Описание фильма:
Аристократу Александру фон Гумбольдту было с рождения предначертано наслаждаться жизнью в родовом замке, выезжать на светские рауты и охоту, а по выходным посещать церковь. Но он с детства мечтал о путешествиях.
Сыну бедняков Карлу Гауссу было с рождения предначертано повторить нелёгкую судьбу родителей. Но школьный учитель распознал его гений и выхлопотал стипендию для учебы в гимназии.
Александр Фон Гумбольдт путешествовал всю свою жизнь, постигая мир через собственный опыт и наблюдения — и мир приобрел учёного-энциклопедиста и основателя множества областей науки. Карл Гаусс всю жизнь прожил в Брауншвайге и Гёттингене, что не помешало ему изобрести теорию чисел и стать одним из величайших математиков всех времен. В 1828 году два исследователя и покорителя мира встретятся на Первом Всемирном конгрессе в Берлине…-Режиссер: Детлев Бук
Актеры: Флориан Давид Фиц, Альбрехт Шух, Аги Ариунсэйчан Даваачу, Жереми Капон, Вики Крипс, Карл Марковиц, Леннарт Хансель, ...
Роли дублировали: Валерий Сторожик, Илья Бледный, Александр Быков, Александр Гаврилин, Николай Быстров, ...
Продолжительность: 02:02:55
Перевод: Дублированный- -Дата мировой премьеры: 25 октября 2012
Дата российской премьеры: 11 апреля 2013, «Кино без границ»
Дата выхода DVD релиза: 17 июня 2013, «Новый Диск»-Видеокодек: MPEG-4 AVC/H.264
Битрейт видео: ~10,0 Мбит/сек
Размер кадра: 1920x1080
Качество видео: BDRip 1080p[HDWinG]
Аудио №1: AC3 5.1 448 kbps - /Русский R5/
Аудио №2: AC3 5.1 640 kbps - /Немецкий/-

Media info:

Общее
Уникальный идентификатор : 215471608494734654495537926889771238032 (0xA21A5282067CC5DEBB6F7790B10E0290)
Полное имя : E:\my films\Measuring_The_World_3D.mkv
Формат : Matroska
Версия формата : Version 3 / Version 2
Размер файла : 9,73 Гбайт
Продолжительность : 2 ч. 2 м.
Общий поток : 11,3 Мбит/сек
Название фильма : Measuring_The_World_3D_HO/U
Дата кодирования : UTC 2013-06-15 13:36:27
Программа кодирования : mkvmerge v5.7.0 ('The Whirlwind') built on Aug 7 2012 14:11:40
Библиотека кодирования : libebml v1.2.3 + libmatroska v1.3.0
Видео
Идентификатор : 1
Формат : AVC
Формат/Информация : Advanced Video Codec
Профиль формата : [email protected]
MultiView_Count : 2
MultiView_Layout : Top-Bottom (left eye first)
Параметр CABAC формата : Да
Параметр ReFrames формата : 4 кадра
Идентификатор кодека : V_MPEG4/ISO/AVC
Продолжительность : 2 ч. 2 м.
Битрейт : 10,0 Мбит/сек
Ширина : 1920 пикселей
Высота : 1080 пикселей
Соотношение сторон : 16:9
Режим частоты кадров : Постоянный
Частота кадров : 23,976 кадра/сек
Цветовое пространство : YUV
Субдискретизация насыщенности : 4:2:0
Битовая глубина : 8 бит
Тип развёртки : Прогрессивная
Бит/(Пиксели*Кадры) : 0.202
Размер потока : 8,60 Гбайт (88%)
Заголовок : Measuring.The.World.3D-HDWinG
Библиотека кодирования : x264 core 132 r2310 76a5c3a
Настройки программы : cabac=1 / ref=4 / deblock=1:-3:-3 / analyse=0x3:0x113 / me=umh / subme=10 / psy=1 / psy_rd=1.00:0.15 / mixed_ref=1 / me_range=32 / chroma_me=1 / trellis=2 / 8x8dct=1 / cqm=0 / deadzone=21,11 / fast_pskip=1 / chroma_qp_offset=-3 / threads=12 / lookahead_threads=1 / sliced_threads=0 / nr=0 / decimate=1 / interlaced=0 / bluray_compat=0 / constrained_intra=0 / bframes=6 / b_pyramid=2 / b_adapt=1 / b_bias=0 / direct=3 / weightb=1 / open_gop=0 / weightp=2 / keyint=250 / keyint_min=23 / scenecut=40 / intra_refresh=0 / rc_lookahead=40 / rc=crf / mbtree=1 / crf=17.0 / qcomp=0.60 / qpmin=10 / qpmax=69 / qpstep=4 / vbv_maxrate=40000 / vbv_bufsize=30000 / crf_max=0.0 / nal_hrd=none / ip_ratio=1.40 / aq=1:1.00
Default : Да
Forced : Да
Аудио #1
Идентификатор : 2
Формат : AC-3
Формат/Информация : Audio Coding 3
Расширение режима : CM (complete main)
Параметр Endianness формата : Big
Идентификатор кодека : A_AC3
Продолжительность : 2 ч. 2 м.
Вид битрейта : Постоянный
Битрейт : 448 Кбит/сек
Каналы : 6 каналов
Расположение каналов : Front: L C R, Side: L R, LFE
Частота : 48,0 КГц
Битовая глубина : 16 бит
Метод сжатия : С потерями
Размер потока : 394 Мбайт (4%)
Заголовок : Дубляж- R5
Язык : Russian
Default : Да
Forced : Да
Аудио #2
Идентификатор : 3
Формат : AC-3
Формат/Информация : Audio Coding 3
Расширение режима : CM (complete main)
Параметр Endianness формата : Big
Идентификатор кодека : A_AC3
Продолжительность : 2 ч. 2 м.
Вид битрейта : Постоянный
Битрейт : 640 Кбит/сек
Каналы : 6 каналов
Расположение каналов : Front: L C R, Side: L R, LFE
Частота : 48,0 КГц
Битовая глубина : 16 бит
Метод сжатия : С потерями
Размер потока : 563 Мбайт (6%)
Заголовок : Original
Язык : German
Default : Нет
Forced : Нет
Меню
00:00:00.000 : en:00:00:00.000
00:12:05.475 : en:00:12:05.475
00:20:29.812 : en:00:20:29.812
00:31:42.275 : en:00:31:42.275
00:42:16.325 : en:00:42:16.325
00:52:51.794 : en:00:52:51.794
01:01:46.620 : en:01:01:46.620
01:12:15.540 : en:01:12:15.540
01:24:07.042 : en:01:24:07.042
01:35:39.025 : en:01:35:39.025
01:44:35.519 : en:01:44:35.519
01:54:44.544 : en:01:54:44.544
Проверено на встроенном плейере ТВ Samsung-D6500Скриншоты:

Время раздачи: 24/7 - круглосуточно до 10 скачавших

[Цитировать]



Показать сообщения:    

Текущее время: 05-Дек 21:41

Часовой пояс: UTC + 3


Вы не можете начинать темы
Вы не можете отвечать на сообщения
Вы не можете редактировать свои сообщения
Вы не можете удалять свои сообщения
Вы не можете голосовать в опросах
Вы не можете прикреплять файлы к сообщениям
Вы не можете скачивать файлы

!ВНИМАНИЕ!
Сайт не предоставляет электронные версии произведений, а занимается лишь коллекционированием и каталогизацией ссылок, присылаемых и публикуемых на форуме нашими читателями. Если вы являетесь правообладателем какого-либо представленного материала и не желаете, чтобы ссылка на него находилась в нашем каталоге, свяжитесь с нами, и мы незамедлительно удалим ее. Файлы для обмена на трекере предоставлены пользователями сайта, и администрация не несет ответственности за их содержание. Просьба не заливать файлы, защищенные авторскими правами, а также файлы нелегального содержания!