[ Сегодня идет свободное скачивание без начисления Download ]


Статистика раздачи
Нет
 
   
 
Top  
 
 
-Дневники Вампира / The Vampire Diaries
Сезон 2, Эпизоды 1-22 (из 22)
- Год выпуска: 2010-2011
Производство: CBS Television Studios
Страна: США
Жанр: ужасы, драма
Режиссер: Маркос Сига / Marcos Siega
Перевод: Профессиональный (многоголосый , закадровый) - LostFilm
Профессиональный (двухголосый, закадровый) - Кубик в Кубе
Субтитры нет
В ролях: Нина Добрев, Пол Уэсли, Иен Сомерхолдер, Стивен Р. МакКуин, Катерина Грэхэм, Кэндис Аккола, Зак Рериг, Сара Каннинг , Майкл Тревино, Мэттью Дэвис, Маргарит МакИнтайр, Малез Джоу и др.
Описание: Прошло всего четыре месяца после трагической аварии, в которой погибли их родители, и 17-летняя Елена Гилберт и ее 15-летний брат Джереми все еще пытаются оправиться от потери и вернуться к нормальной жизни. Елена всегда была отличной ученицей, красивой и популярной девушкой в школе, но теперь ей очень тяжело скрывать свою печаль от внешнего мира. В начале учебного года внимание Елены и ее друзей привлекает новый ученик, загадочный и красивый Стефан Сальваторе.
Стефан и Елена тут же чувствуют взаимную симпатию, но Елена даже не подозревает, что Стефан - вампир, которому уже сотни лет, и который старается мирно жить среди людей, несмотря на то, что его брат, Дэймон - воплощение вампирской жестокости и кровожадности. Теперь два брата-вампира - один добрый, другой злой - ведут борьбу за души Елены, ее друзей и других жителей городка Мистик Фоллз.
[kp]453191[/kp] [imdb]tt1405406[/imdb]
Качество: BDRip 1080p
Продолжительность: ~ 00:44:00 - средняя продолжительность серии
Формат: MKV
Видео кодек: x264
Аудио кодек: AC3, DTS
Видео: MPEG4 Video (H264) 1920x1080 23.98fps 9 675 Kbps 0.195 bit/pixel
Аудио #1: 48 kHz, AC3 Dolby Digital, 3/2 (L,C,R,l,r) + LFE ch, ~448.00 kbps avg
Аудио #1 - 21-22 серии: 48 kHz, AC3 Dolby Digital, 3/2 (L,C,R,l,r) + LFE ch, ~384.00 kbps avg
Аудио #2: 48 kHz, AC3 Dolby Digital, 3/2 (L,C,R,l,r) + LFE ch, ~384.00 kbps avg
Аудио #3: 48 kHz, DTS. 6 channels, Front: L C R, Side: L R, LFE, ~1 510 Kbps kbps avg
1. The Return / Возвращение
2. Brave New World / Прекрасный новый мир
3. Bad Moon Rising / Восход дурной луны
4. Memory Lane / Воспоминания
5. Kill or Be Killed / Убей или убьют тебя
6. Plan B / План Б
7. Masquerade / Маскарад
8. Rose / Роза
9. Katerina / Катерина
10. The Sacrifice / Жертва
11. By the Light of the Moon / При свете луны
12. The Descent / Срыв
13. Daddy Issues / Проблемы с отцом
14. Crying Wolf / Плачущий волк
15. The Dinner Party / Званый ужин
16. The House Guest / Гость
17. Know Thy Enemy / Знай врага
18. The Last Dance / Последний танец
19. Klaus / Клаус
20. The Last Day / Последний день
21. The Sun Also Rises / И взойдет солнце
22. As I Lay Dying / Пока я умираю

MI

General
Unique ID : 196103123454787703388665652782752416961 (0x93881677C36D4D1CA5091DB20BA544C1)
Complete name : I:\Раздачи\Дневники вампира - 2 сезон (BDRIp 1080p)\The Vampire Diaries - 2x01 The Return.mkv
Format : Matroska
File size : 3.51 GiB
Duration : 41mn 52s
Overall bit rate : 12.0 Mbps
Encoded date : UTC 2011-09-12 21:12:57
Writing application : mkvmerge v4.0.0 ('The Stars were mine') сборка от Jun 6 2010 16:18:42
Writing library : libebml v1.0.0 + libmatroska v1.0.0
Video
ID : 1
Format : AVC
Format/Info : Advanced Video Codec
Format profile : High@L4.1
Format settings, CABAC : Yes
Format settings, ReFrames : 4 frames
Format settings, GOP : M=1, N=48
Codec ID : V_MPEG4/ISO/AVC
Duration : 41mn 52s
Bit rate : 9 675 Kbps
Width : 1 920 pixels
Height : 1 080 pixels
Display aspect ratio : 16:9
Frame rate : 23.976 fps
Color space : YUV
Chroma subsampling : 4:2:0
Bit depth : 8 bits
Scan type : Progressive
Bits/(Pixel*Frame) : 0.195
Stream size : 2.76 GiB (79%)
Writing library : x264 core 116 r2057 0ba8a9c
Encoding settings : cabac=1 / ref=4 / deblock=1:-1:-1 / analyse=0x3:0x113 / me=umh / subme=7 / psy=1 / psy_rd=1.00:0.00 / mixed_ref=1 / me_range=16 / chroma_me=1 / trellis=1 / 8x8dct=1 / cqm=0 / deadzone=21,11 / fast_pskip=1 / chroma_qp_offset=-2 / threads=12 / sliced_threads=0 / nr=0 / decimate=1 / interlaced=0 / bluray_compat=0 / constrained_intra=0 / bframes=3 / b_pyramid=2 / b_adapt=2 / b_bias=0 / direct=3 / weightb=1 / open_gop=0 / weightp=2 / keyint=250 / keyint_min=23 / scenecut=40 / intra_refresh=0 / rc_lookahead=40 / rc=2pass / mbtree=1 / bitrate=9675 / ratetol=1.0 / qcomp=0.60 / qpmin=0 / qpmax=69 / qpstep=4 / cplxblur=20.0 / qblur=0.5 / vbv_maxrate=50000 / vbv_bufsize=50000 / nal_hrd=none / ip_ratio=1.40 / aq=1:1.00
Language : English
Audio #1
ID : 2
Format : AC-3
Format/Info : Audio Coding 3
Mode extension : CM (complete main)
Codec ID : A_AC3
Duration : 41mn 52s
Bit rate mode : Constant
Bit rate : 448 Kbps
Channel(s) : 6 channels
Channel positions : Front: L C R, Side: L R, LFE
Sampling rate : 48.0 KHz
Bit depth : 16 bits
Compression mode : Lossy
Stream size : 134 MiB (4%)
Title : LostFilm
Language : Russian
Audio #2
ID : 3
Format : AC-3
Format/Info : Audio Coding 3
Mode extension : CM (complete main)
Codec ID : A_AC3
Duration : 41mn 52s
Bit rate mode : Constant
Bit rate : 384 Kbps
Channel(s) : 6 channels
Channel positions : Front: L C R, Side: L R, LFE
Sampling rate : 48.0 KHz
Bit depth : 16 bits
Compression mode : Lossy
Stream size : 115 MiB (3%)
Title : Кубик в Кубе
Language : Russian
Audio #3
ID : 4
Format : DTS
Format/Info : Digital Theater Systems
Codec ID : A_DTS
Duration : 41mn 52s
Bit rate mode : Constant
Bit rate : 1 510 Kbps
Channel(s) : 6 channels
Channel positions : Front: L C R, Side: L R, LFE
Sampling rate : 48.0 KHz
Bit depth : 16 bits
Compression mode : Lossy
Delay relative to video : 11ms
Stream size : 452 MiB (13%)
Title : Оригинал
Language : English
-

[Цитировать]



Показать сообщения:    

Текущее время: 10-Дек 21:38

Часовой пояс: UTC + 3


Вы не можете начинать темы
Вы не можете отвечать на сообщения
Вы не можете редактировать свои сообщения
Вы не можете удалять свои сообщения
Вы не можете голосовать в опросах
Вы не можете прикреплять файлы к сообщениям
Вы не можете скачивать файлы

!ВНИМАНИЕ!
Сайт не предоставляет электронные версии произведений, а занимается лишь коллекционированием и каталогизацией ссылок, присылаемых и публикуемых на форуме нашими читателями. Если вы являетесь правообладателем какого-либо представленного материала и не желаете, чтобы ссылка на него находилась в нашем каталоге, свяжитесь с нами, и мы незамедлительно удалим ее. Файлы для обмена на трекере предоставлены пользователями сайта, и администрация не несет ответственности за их содержание. Просьба не заливать файлы, защищенные авторскими правами, а также файлы нелегального содержания!