[ Сегодня идет свободное скачивание без начисления Download ]


Статистика раздачи
Нет
 
   
 
Top  
 
 
-Q: Загадка женщины / Q: Desire (2011) HDRip- Русское название: Q: Загадка женщины
Оригинальное название: Q: Desire
Год выпуска: 2011
Производство: Франция / Acajou Films, Rebel Rebel
Жанр: Драма, Эротика
Возраст 18+
Описание фильма:
Когда судьба приводит людей на грань отчаяния, единственным способом вновь ощутить вкус жизни может стать нежданный аттракцион грандиозных чувственных наслаждений, которые способна дарить каждому новому знакомому очаровательная Сесиль. Попадая к юной красотке в сладкий плен удовольствий, любой теряет голову; все прочее перестает иметь для него значение, кроме одного - секс, секс, секс…
Режиссер: Лоран Буник
Актеры: Дебора Реви, Хелен Зиммер, Гоуэн Диди, Джонни Амаро, Жоан Либеро, Жан-Франсуа Галлот, Брайс Форнье, Кристелль Бенуа, Патрик Готье, Летиция Белличчини, Фабьен Ара, Аурелия Арто, Кристин Мартин, Бернард Вернь, Луди Бокен, Паскаль Юделевич, Лоранс Гормезано, Мишель Гондуэн, Винсент Джили
Продолжительность: 01:42:40
Перевод: Многоголосый закадровый, профессиональный

Дата мировой премьеры: 14 сентября 2011
Дата выхода DVD релиза: 21 марта 2012, «Кармен Видео»
Видеокодек: Xvid
Битрейт видео: ~1829 kb/s
Размер кадра: 720x400
Качество видео: HDRip
Аудиокодек: AC3 2.0
Битрейт аудио: 192 kb/s
Сэмпл: Ссылка

MediaInfo:

Общее
Полное имя : C:Торренты\Q.Загадка женщины.2011.UNCUT.HDRip.avi
Формат : AVI
Формат/Информация : Audio Video Interleave
Размер файла : 1,46 Гбайт
Продолжительность : 1 ч. 42 м.
Общий поток : 2030 Кбит/сек
Программа кодирования : VirtualDubMod 1.5.10.2 (build 2540/release)
Библиотека кодирования : VirtualDubMod build 2540/release
Видео
Идентификатор : 0
Формат : MPEG-4 Visual
Профиль формата : Advanced Simple@L5
Параметр BVOP формата : 2
Параметр QPel формата : Нет
Параметр GMC формата : Без точки перехода
Параметр матрицы формата : Default (MPEG)
Идентификатор кодека : XVID
Идентификатор кодека/Подсказка : XviD
Продолжительность : 1 ч. 42 м.
Битрейт : 1829 Кбит/сек
Ширина : 720 пикселей
Высота : 400 пикселей
Соотношение сторон : 16:9
Частота кадров : 25,000 кадров/сек
Цветовое пространство : YUV
Субдискретизация насыщенности : 4:2:0
Битовая глубина : 8 бит
Тип развёртки : Прогрессивная
Метод сжатия : С потерями
Бит/(Пиксели*Кадры) : 0.254
Размер потока : 1,31 Гбайт (90%)
Библиотека кодирования : XviD 1.2.1 (UTC 2008-12-04)
Аудио
Идентификатор : 1
Формат : AC-3
Формат/Информация : Audio Coding 3
Расширение режима : CM (complete main)
Параметр Endianness формата : Big
Идентификатор кодека : 2000
Продолжительность : 1 ч. 42 м.
Вид битрейта : Постоянный
Битрейт : 192 Кбит/сек
Каналы : 2 канала
Расположение каналов : Front: L R
Частота : 48,0 КГц
Битовая глубина : 16 бит
Метод сжатия : С потерями
Размер потока : 141 Мбайт (9%)
Выравнивание : Разделение по промежуткам
Продолжительность промежутка : 40 мс. (1,00 видеокадр)
Время предзагрузки промежутка : 500 мс.
Скриншоты: Время раздачи: с 10.00 до 23.00

[Цитировать]



Показать сообщения:    

Текущее время: 10-Дек 00:23

Часовой пояс: UTC + 3


Вы не можете начинать темы
Вы не можете отвечать на сообщения
Вы не можете редактировать свои сообщения
Вы не можете удалять свои сообщения
Вы не можете голосовать в опросах
Вы не можете прикреплять файлы к сообщениям
Вы не можете скачивать файлы

!ВНИМАНИЕ!
Сайт не предоставляет электронные версии произведений, а занимается лишь коллекционированием и каталогизацией ссылок, присылаемых и публикуемых на форуме нашими читателями. Если вы являетесь правообладателем какого-либо представленного материала и не желаете, чтобы ссылка на него находилась в нашем каталоге, свяжитесь с нами, и мы незамедлительно удалим ее. Файлы для обмена на трекере предоставлены пользователями сайта, и администрация не несет ответственности за их содержание. Просьба не заливать файлы, защищенные авторскими правами, а также файлы нелегального содержания!