[ Сегодня идет свободное скачивание без начисления Download ]


Статистика раздачи
Нет
 
   
 
Top  
 
 
- Расплата / Payback (1995) DVDRip- «When a woman stands in the way of a man's revenge, it can be deadly.»- Русское название: Расплата
Оригинальное название: Payback
Год выпуска: 1995
Производство: США
Жанр: триллер-Описание фильма: Оказавшись за решёткой после попытки ограбления магазина, Оскар знакомится со старым зеком Маком и узнаёт, что на воле у того припрятано солидное состояние. Садист-надзиратель Гелли пытается вытрясти из Мака информацию о местонахождении награбленного, но тот не выдаёт секрета. Несговорчивость приводит к тому, что во время очередного допроса Мак получает увечья, не сопоставимые с жизнью.
Перед смертью Мак всё-таки успевает поведать Оскару о карте, ведущей к спрятанным деньгам, но предварительно берёт с него обещание отомстить Гелли за свою гибель.-Режиссер: Энтони Хикокс- Актеры: Си Томас Хауэлл, Джоан Северанс, Маршалл Белл, Ричард Берджи, Джон Тоулс-Бей, Р.Г. Армстронг, Стив Уилкокс, Лиза Робин Келли, Дэвид Энтони Хиггинс, Денис Бессетт.-Продолжительность: 01:29:23
Перевод: Авторский (одноголосый закадровый) - Андрей Гаврилов
Язык субтитров: отсутствуют
-
-Дата мировой премьеры: ........................................10 января 1995-Рейтинг MPAA: Рейтинг R - Детям до 17 лет обязательно присутствие родителей
-Видеокодек: XviD
Битрейт видео: ~1023 Кбит/с
Размер кадра: 624x480
Качество видео: DVDRip
Аудиокодек: MP3, 2.0
Битрейт аудио: 128 Кбит/с
-

MediaInfo

General
Complete name : D:\Видео\Rasplata_(1995).DVDRip.XviD.avi
Format : AVI
Format/Info : Audio Video Interleave
File size : 742 MiB
Duration : 1h 29mn
Overall bit rate : 1 160 Kbps
Movie name : Расплата / Payback (1995) DVDRip
Director :
Writing application : VirtualDubMod 1.5.10.3 | www.virtualdub-fr.org || (build 2550/release)
Video
ID : 0
Format : MPEG-4 Visual
Format profile : Advanced Simple@L5
Format settings, BVOP : 2
Format settings, QPel : No
Format settings, GMC : No warppoints
Format settings, Matrix : Custom
Codec ID : XVID
Codec ID/Hint : XviD
Duration : 1h 29mn
Bit rate : 1 023 Kbps
Width : 624 pixels
Height : 480 pixels
Display aspect ratio : 4:3
Frame rate : 25.000 fps
Color space : YUV
Chroma subsampling : 4:2:0
Bit depth : 8 bits
Scan type : Progressive
Compression mode : Lossy
Bits/(Pixel*Frame) : 0.137
Stream size : 654 MiB (88%)
Writing library : XviD 73
Audio
ID : 1
Format : MPEG Audio
Format version : Version 1
Format profile : Layer 3
Codec ID : 55
Codec ID/Hint : MP3
Duration : 1h 29mn
Bit rate mode : Constant
Bit rate : 128 Kbps
Channel(s) : 2 channels
Sampling rate : 48.0 KHz
Compression mode : Lossy
Stream size : 81.8 MiB (11%)
Alignment : Aligned on interleaves
Interleave, duration : 40 ms (1.00 video frame)
Interleave, preload duration : 504 ms
Writing library : LAME3.99r
Encoding settings : -m s -V 4 -q 0 -lowpass 17 -b 128
-Скриншоты:

[Цитировать]



Показать сообщения:    

Текущее время: 07-Дек 19:26

Часовой пояс: UTC + 3


Вы не можете начинать темы
Вы не можете отвечать на сообщения
Вы не можете редактировать свои сообщения
Вы не можете удалять свои сообщения
Вы не можете голосовать в опросах
Вы не можете прикреплять файлы к сообщениям
Вы не можете скачивать файлы

!ВНИМАНИЕ!
Сайт не предоставляет электронные версии произведений, а занимается лишь коллекционированием и каталогизацией ссылок, присылаемых и публикуемых на форуме нашими читателями. Если вы являетесь правообладателем какого-либо представленного материала и не желаете, чтобы ссылка на него находилась в нашем каталоге, свяжитесь с нами, и мы незамедлительно удалим ее. Файлы для обмена на трекере предоставлены пользователями сайта, и администрация не несет ответственности за их содержание. Просьба не заливать файлы, защищенные авторскими правами, а также файлы нелегального содержания!