[ Сегодня идет свободное скачивание без начисления Download ]


Статистика раздачи
Нет
 
   
 
Top  
 
 
- Черная сутана / Black Robe (1991) DVDRip- Русское название: Черная сутана
Оригинальное название: Black Robe
Год выпуска: 1991
Производство: Канада, Австралия, США
Жанр: драма, приключения, вестерн, история-Описание фильма: Действие происходит в XVII столетии в Новом Свете. Отец Лафорг — священник, которого Шамплен, основатель и губернатор Квебека, посылает в пограничную зону, чтобы обращать индейцев племени гуронов в истинную веру.
Поклявшись быть проводником и защитником Лафорга, в путь отправляется и вождь алгонкинов Хомина, взявший с собой жену, юного сына и очень красивую дочь Аннуку, еще не достигшую совершеннолетия. Их также сопровождают несколько его воинов со своими семьями.
Побуждаемый в равной степени страстью к Аннуке и стремлением служить Господу, к компании присоединяется молодой французский поселенец Даниэль. Вместе они отправляются в путешествие, в котором никого из них не ждет ничего хорошего…-Режиссер: Брюс Бересфорд- Актеры: Лотер Блюто, Аден Янг, Сандрин Холт, Аугуст Шелленберг, Танту Кардинал, Билли Ту Риверз, Лоуренс Бэйн, Харрисон Лью, Уэсли Коте, Фрэнк Уилсон.-Продолжительность: 01:40:45
Перевод: Авторский (одноголосый закадровый) - Василий Горчаков
Язык субтитров: отсутствуют
-
-Дата мировой премьеры: ........................................5 сентября 1991-Рейтинг MPAA: Рейтинг R - Детям до 17 лет обязательно присутствие родителей
-Видеокодек: XviD
Битрейт видео: ~894 Кбит/с
Размер кадра: 672x368
Качество видео: DVDRip
Аудиокодек: MP3, 2.0
Битрейт аудио: 128 Кбит/с
-

MediaInfo

General
Complete name : D:\Видео\Chernaya_sutana_(1991).DVDRip.Xvid.avi
Format : AVI
Format/Info : Audio Video Interleave
File size : 744 MiB
Duration : 1h 40mn
Overall bit rate : 1 032 Kbps
Movie name : Черная Сутана / Черное одеяние / Black Robe (1991) DVDRip
Director :
Writing application : VirtualDubMod 1.5.10.3 | www.virtualdub-fr.org || (build 2550/release)
Video
ID : 0
Format : MPEG-4 Visual
Format profile : Advanced Simple@L5
Format settings, BVOP : 2
Format settings, QPel : No
Format settings, GMC : No warppoints
Format settings, Matrix : Custom
Codec ID : XVID
Codec ID/Hint : XviD
Duration : 1h 40mn
Bit rate : 894 Kbps
Width : 672 pixels
Height : 368 pixels
Display aspect ratio : 1.85:1
Frame rate : 23.976 fps
Color space : YUV
Chroma subsampling : 4:2:0
Bit depth : 8 bits
Scan type : Progressive
Compression mode : Lossy
Bits/(Pixel*Frame) : 0.151
Stream size : 645 MiB (87%)
Writing library : XviD 73
Audio
ID : 1
Format : MPEG Audio
Format version : Version 1
Format profile : Layer 3
Codec ID : 55
Codec ID/Hint : MP3
Duration : 1h 40mn
Bit rate mode : Constant
Bit rate : 128 Kbps
Channel(s) : 2 channels
Sampling rate : 48.0 KHz
Compression mode : Lossy
Stream size : 92.3 MiB (12%)
Alignment : Aligned on interleaves
Interleave, duration : 42 ms (1.00 video frame)
Interleave, preload duration : 504 ms
Writing library : LAME3.99r
Encoding settings : -m s -V 4 -q 0 -lowpass 17 -b 128
-Скриншоты:

-Время раздачи: 24/7 - круглосуточно (до первых сидов - потом по возможности)

[Цитировать]



Показать сообщения:    

Текущее время: 11-Дек 05:17

Часовой пояс: UTC + 3


Вы не можете начинать темы
Вы не можете отвечать на сообщения
Вы не можете редактировать свои сообщения
Вы не можете удалять свои сообщения
Вы не можете голосовать в опросах
Вы не можете прикреплять файлы к сообщениям
Вы не можете скачивать файлы

!ВНИМАНИЕ!
Сайт не предоставляет электронные версии произведений, а занимается лишь коллекционированием и каталогизацией ссылок, присылаемых и публикуемых на форуме нашими читателями. Если вы являетесь правообладателем какого-либо представленного материала и не желаете, чтобы ссылка на него находилась в нашем каталоге, свяжитесь с нами, и мы незамедлительно удалим ее. Файлы для обмена на трекере предоставлены пользователями сайта, и администрация не несет ответственности за их содержание. Просьба не заливать файлы, защищенные авторскими правами, а также файлы нелегального содержания!