[ Сегодня идет свободное скачивание без начисления Download ]


Статистика раздачи
Нет
 
   
 
Top  
 
 
-G.I. Joe: Бросок кобры 2 / G.I. Joe: Retaliation (2013) DVDRip [H.264]- Год выпуска: 2013
Производство: США, Di Bonaventura Pictures
Жанр: Фантастика, Боевик, Приключения
Перевод: Дублированный (Чистый звук)
Субтитры: Отсутствуют
Дата мировой премьеры: 27 марта 2013
Дата российской премьеры: 28 марта 2013, «Централ Партнершип»
Дата выхода DVD релиза: 29 июля 2013, «Новый Диск»
Режиссер: Джон М. Чу
Продюсер: Лоренцо Ди Бонавентура, Брайан Голднер, Гари Барбер
Актеры: Дуэйн Джонсон, Эдрианн Палики, Брюс Уиллис, Рэй Парк, Ли Бён Хон, Д.Дж. Котрона, Джонатан Прайс, Элоди Юнг, Ченнинг Татум, Люк Брейси
Описание фильма:
Во второй части отряд «G.I. Joe» вновь объявит вызов группировке «Кобра» и вступит в противостояние с правительством…

Рейтинг R13 - Детям до 13 лет просмотр не желателен
Продолжительность: 01:45:44
Качество видео: DVDRip | исх. G.I Joe.Retaliation.2013 DVD5 RETAIL-SAM
Видеокодек: MPEG-4 AVC/H.264
Битрейт видео: 2400 kb/s
Размер кадра: 720x426@1024x426
Аудиокодек: AC3, 2.0
Битрейт аудио: 320 kb/s
-

MI

Общее
Уникальный идентификатор                 : 173733259308221733615868791304175945960 (0x82B3CF034730D9C6A1C61A17FBB708E8)
Полное имя                               : D:\Раздачи\GI.Joe.Brosok.Kobri.2.2013.x264.DVDRip.mkv
Формат                                   : Matroska
Версия формата                           : Version 2
Размер файла                             : 1,97 Гбайт
Продолжительность                        : 1 ч. 45 м.
Общий поток                              : 2667 Кбит/сек
Дата кодирования                         : UTC 2013-07-07 15:48:36
Программа кодирования                    : mkvmerge v3.2.0 ('Beginnings') built on Feb 12 2010 16:46:17
Библиотека кодирования                   : libebml v0.7.9 + libmatroska v0.8.1
Видео
Идентификатор                            : 1
Формат                                   : AVC
Формат/Информация                        : Advanced Video Codec
Профиль формата                          : [url=mailto:High@L4.1]High@L4.1[/url]
Параметр CABAC формата                   : Да
Параметр ReFrames формата                : 12 кадров
Идентификатор кодека                     : V_MPEG4/ISO/AVC
Продолжительность                        : 1 ч. 45 м.
Битрейт                                  : 2400 Кбит/сек
Ширина                                   : 720 пикселей
Высота                                   : 426 пикселей
Соотношение сторон                       : 2,40:1
Режим частоты кадров                     : Постоянный
Частота кадров                           : 25,000 кадров/сек
Цветовое пространство                    : YUV
Субдискретизация насыщенности            : 4:2:0
Битовая глубина                          : 8 бит
Тип развёртки                            : Прогрессивная
Бит/(Пиксели*Кадры)                      : 0.313
Размер потока                            : 1,69 Гбайт (86%)
Библиотека кодирования                   : x264 core 133 r2334 a3ac64b
Настройки программы                      : cabac=1 / ref=12 / deblock=1:-2:-1 / analyse=0x3:0x133 / me=umh / subme=10 / psy=1 / psy_rd=1.10:0.10 / mixed_ref=1 / me_range=32 / chroma_me=1 / trellis=2 / 8x8dct=1 / cqm=0 / deadzone=21,11 / fast_pskip=0 / chroma_qp_offset=-4 / threads=6 / lookahead_threads=1 / sliced_threads=0 / nr=0 / decimate=1 / interlaced=0 / bluray_compat=0 / constrained_intra=0 / bframes=8 / b_pyramid=2 / b_adapt=2 / b_bias=0 / direct=3 / weightb=1 / open_gop=0 / weightp=2 / keyint=240 / keyint_min=22 / scenecut=40 / intra_refresh=0 / rc_lookahead=0 / rc=2pass / mbtree=0 / bitrate=2400 / ratetol=1.0 / qcomp=0.70 / qpmin=0 / qpmax=69 / qpstep=4 / cplxblur=20.0 / qblur=0.5 / vbv_maxrate=50000 / vbv_bufsize=62500 / nal_hrd=none / ip_ratio=1.35 / pb_ratio=1.25 / aq=2:0.90
Язык                                     : English
Default                                  : Нет
Forced                                   : Нет
Аудио
Идентификатор                            : 2
Формат                                   : AC-3
Формат/Информация                        : Audio Coding 3
Расширение режима                        : CM (complete main)
Параметр Endianness формата              : Big
Идентификатор кодека                     : A_AC3
Продолжительность                        : 1 ч. 45 м.
Вид битрейта                             : Постоянный
Битрейт                                  : 320 Кбит/сек
Каналы                                   : 2 канала
Расположение каналов                     : Front: L R
Частота                                  : 48,0 КГц
Битовая глубина                          : 16 бит
Метод сжатия                             : С потерями
Задержка видео                           : 104 мс.
Размер потока                            : 242 Мбайт (12%)
Язык                                     : Russian
Default                                  : Да
Forced                                   : Нет

Log_x264

---[Information] [06.07.2013 0:50:34] x264 [info]: frame I:1936 Avg QP:16.08 size: 48655 PSNR Mean Y:47.92 U:50.82 V:51.14 Avg:48.70 Global:48.26
---[Information] [06.07.2013 0:50:34] x264 [info]: frame P:35395 Avg QP:18.44 size: 22332 PSNR Mean Y:45.74 U:48.57 V:49.00 Avg:46.49 Global:45.85
---[Information] [06.07.2013 0:50:34] x264 [info]: frame B:117698 Avg QP:20.38 size: 8284 PSNR Mean Y:45.03 U:47.89 V:48.54 Avg:45.74 Global:45.03
--Скриншоты: -Приятного просмотра
и не забываем говорить СПАСИБО...
-Время раздачи: 24/7,
до 5 скачавших.

[Цитировать]



Показать сообщения:    

Текущее время: 10-Дек 13:50

Часовой пояс: UTC + 3


Вы не можете начинать темы
Вы не можете отвечать на сообщения
Вы не можете редактировать свои сообщения
Вы не можете удалять свои сообщения
Вы не можете голосовать в опросах
Вы не можете прикреплять файлы к сообщениям
Вы не можете скачивать файлы

!ВНИМАНИЕ!
Сайт не предоставляет электронные версии произведений, а занимается лишь коллекционированием и каталогизацией ссылок, присылаемых и публикуемых на форуме нашими читателями. Если вы являетесь правообладателем какого-либо представленного материала и не желаете, чтобы ссылка на него находилась в нашем каталоге, свяжитесь с нами, и мы незамедлительно удалим ее. Файлы для обмена на трекере предоставлены пользователями сайта, и администрация не несет ответственности за их содержание. Просьба не заливать файлы, защищенные авторскими правами, а также файлы нелегального содержания!