[ Сегодня идет свободное скачивание без начисления Download ]


Статистика раздачи
Нет
 
   
 
Top  
 
 
-Гений, два земляка и птенчик / Un Genio, due compari, un pollo (1975) [1080p] BDRip- Русское название: Гений, два земляка и птенчик
Оригинальное название: Un Genio, due compari, un pollo
Выпущено: Италия, Франция, Германия (ФРГ), AMLF, Rafran Cinematografica, Rialto Film Preben-Philipsen
Год выпуска: 1975
Жанр: Вестерн, Комедия
Описание фильма:
Аферист меткий стрелок Джо Сэнкс объяединяется с вором Биллом и наивной Люси, чтобы украсть 300 тысяч долларов у нечистого на руку майора Кэбота из небольшого городка, который пытается выжить беззащитных индейцев с их исконных земель и тем самым уничтожить их. Когда правительство посылает в город инспектора с проверкой, майор идет на хитрость, переодевая своих бледнолицых прихлебателей в индейскую одежду и таким образом пытается скрыть факт своего преступления...
Режиссер: Дамиано Дамиани, Серджио Леоне
Актеры: Теренс Хилл, Робер Шарльбуа, Раймунд Хармсторф, Миу-Миу, Патрик Джозеф МакГухан, Пьеро Вида, Рик Батталья, Марио Брега, Фридрих фон Ледебур, Жан Мартен, Клаус Кински, Клара Колозимо, Бенито Стефанелли, Ренато Бальдини, Мириам Малер, Рой Босьер, Жерар Букарон, Армандо Боттин, Карла Кассола, Витторио Фанфони, Валерио Руджери
Продолжительность: 02:03:26
Качество видео: BDRip
Перевод 1: Одноголосый закадровый
Перевод 2: Профессиональный одноголосый
Язык субтитров: Русские, английские
Вид субтитров: Вшитые

Дата мировой премьеры: 16 декабря 1975
Видеокодек: MPEG-4 AVC/H.264
Битрейт видео: ~9500 Кбит/с
Размер кадра: 1920x812
Аудио 1: AC3 Русский 2.0 / 48 kHz / 192 kbps / 16-bit Любительский одноголосый
Аудио 2: AC3 Русский 2.0 / 48 kHz / 224 kbps / 16-bit Профессиональный одноголосый
Аудио 3: DTS Английский 2.0 / 48 kHz / 768 kbps / 24-bit Оригинал
Сэмпл: Ссылка

MediaInfo

Общее
Уникальный идентификатор : 248085886055305189277301431605714302536 (0xBAA39A8A569BF919978C50AA6B013648)
Полное имя : C:\Xvid4PSP\Genij.dva.zemliyka.i.ptentcik.1975.x264.BDRip.1080p.mkv
Формат : Matroska
Версия формата : Version 4 / Version 2
Размер файла : 9,21 Гбайт
Продолжительность : 2 ч. 3 м.
Общий поток : 10,7 Мбит/сек
Название фильма : = MediaClub = rip by Painter
Дата кодирования : UTC 2013-07-04 10:39:22
Программа кодирования : mkvmerge v6.3.0 ('You can't stop me!') built on Jun 28 2013 20:09:41
Библиотека кодирования : libebml v1.3.0 + libmatroska v1.4.0
Видео
Идентификатор : 1
Формат : AVC
Формат/Информация : Advanced Video Codec
Профиль формата : High@L4.1
Параметр CABAC формата : Да
Параметр ReFrames формата : 4 кадра
Идентификатор кодека : V_MPEG4/ISO/AVC
Продолжительность : 2 ч. 3 м.
Битрейт : 9500 Кбит/сек
Ширина : 1920 пикселей
Высота : 812 пикселей
Соотношение сторон : 2,35:1
Режим частоты кадров : Постоянный
Частота кадров : 23,976 кадра/сек
Цветовое пространство : YUV
Субдискретизация насыщенности : 4:2:0
Битовая глубина : 8 бит
Тип развёртки : Прогрессивная
Бит/(Пиксели*Кадры) : 0.254
Размер потока : 8,01 Гбайт (87%)
Библиотека кодирования : x264 core 130 r2273 b3065e6
Настройки программы : cabac=1 / ref=4 / deblock=1:-3:-2 / analyse=0x3:0x133 / me=umh / subme=11 / psy=1 / psy_rd=1.00:0.20 / mixed_ref=1 / me_range=48 / chroma_me=1 / trellis=2 / 8x8dct=1 / cqm=0 / deadzone=21,11 / fast_pskip=0 / chroma_qp_offset=-3 / threads=6 / lookahead_threads=1 / sliced_threads=0 / nr=0 / decimate=0 / interlaced=0 / bluray_compat=0 / constrained_intra=0 / bframes=8 / b_pyramid=2 / b_adapt=2 / b_bias=0 / direct=3 / weightb=1 / open_gop=0 / weightp=2 / keyint=240 / keyint_min=23 / scenecut=40 / intra_refresh=0 / rc=2pass / mbtree=0 / bitrate=9500 / ratetol=1.0 / qcomp=0.60 / qpmin=0 / qpmax=69 / qpstep=4 / cplxblur=20.0 / qblur=0.5 / ip_ratio=1.40 / pb_ratio=1.30 / aq=1:0.10
Язык : English
Default : Да
Forced : Нет
Аудио #1
Идентификатор : 2
Формат : AC-3
Формат/Информация : Audio Coding 3
Расширение режима : CM (complete main)
Параметр Endianness формата : Big
Идентификатор кодека : A_AC3
Продолжительность : 2 ч. 3 м.
Вид битрейта : Постоянный
Битрейт : 192 Кбит/сек
Каналы : 2 канала
Расположение каналов : Front: L R
Частота : 48,0 КГц
Битовая глубина : 16 бит
Метод сжатия : С потерями
Размер потока : 170 Мбайт (2%)
Заголовок : Любительский одноголосый
Язык : Russian
Default : Да
Forced : Нет
Аудио #2
Идентификатор : 3
Формат : AC-3
Формат/Информация : Audio Coding 3
Расширение режима : CM (complete main)
Параметр Endianness формата : Big
Идентификатор кодека : A_AC3
Продолжительность : 2 ч. 3 м.
Вид битрейта : Постоянный
Битрейт : 224 Кбит/сек
Каналы : 2 канала
Расположение каналов : Front: L R
Частота : 48,0 КГц
Битовая глубина : 16 бит
Метод сжатия : С потерями
Размер потока : 198 Мбайт (2%)
Заголовок : Профессиональный одноголосый
Язык : Russian
Default : Нет
Forced : Нет
Аудио #3
Идентификатор : 4
Формат : DTS
Формат/Информация : Digital Theater Systems
Режим : 16
Параметр Endianness формата : Big
Идентификатор кодека : A_DTS
Продолжительность : 2 ч. 3 м.
Вид битрейта : Постоянный
Битрейт : 768 Кбит/сек
Каналы : 2 канала
Расположение каналов : Front: L R
Частота : 48,0 КГц
Битовая глубина : 24 бит
Метод сжатия : С потерями
Размер потока : 678 Мбайт (7%)
Язык : English
Default : Нет
Forced : Нет
Текст #1
Идентификатор : 5
Формат : UTF-8
Идентификатор кодека : S_TEXT/UTF8
Идентификатор кодека/Информация : UTF-8 Plain Text
Язык : Russian
Default : Нет
Forced : Нет
Текст #2
Идентификатор : 6
Формат : UTF-8
Идентификатор кодека : S_TEXT/UTF8
Идентификатор кодека/Информация : UTF-8 Plain Text
Язык : English
Default : Нет
Forced : Нет
Меню
00:00:00.000 : en:00:00:00.000
00:08:55.368 : en:00:08:55.368
00:23:34.496 : en:00:23:34.496
00:31:51.535 : en:00:31:51.535
00:39:20.275 : en:00:39:20.275
00:54:09.413 : en:00:54:09.413
01:01:59.299 : en:01:01:59.299
01:11:49.430 : en:01:11:49.430
01:21:26.882 : en:01:21:26.882
01:32:56.404 : en:01:32:56.404
01:42:40.654 : en:01:42:40.654
Скриншоты:

Время раздачи: 24/7

[Цитировать]



Показать сообщения:    

Текущее время: 11-Дек 11:06

Часовой пояс: UTC + 3


Вы не можете начинать темы
Вы не можете отвечать на сообщения
Вы не можете редактировать свои сообщения
Вы не можете удалять свои сообщения
Вы не можете голосовать в опросах
Вы не можете прикреплять файлы к сообщениям
Вы не можете скачивать файлы

!ВНИМАНИЕ!
Сайт не предоставляет электронные версии произведений, а занимается лишь коллекционированием и каталогизацией ссылок, присылаемых и публикуемых на форуме нашими читателями. Если вы являетесь правообладателем какого-либо представленного материала и не желаете, чтобы ссылка на него находилась в нашем каталоге, свяжитесь с нами, и мы незамедлительно удалим ее. Файлы для обмена на трекере предоставлены пользователями сайта, и администрация не несет ответственности за их содержание. Просьба не заливать файлы, защищенные авторскими правами, а также файлы нелегального содержания!