[ Сегодня идет свободное скачивание без начисления Download ]


Статистика раздачи
Нет
 
   
 
Top  
 
 
-День шакала / The Day Of The Jackal (1973) HDTVRip (720p)-«Fred Zinnemann's film of...»
Русское название: День шакала
Оригинальное название: The Day Of The Jackal
Выпущено: Великобритания, Франция, Warwick Film Productions, Universal Productions France
Год выпуска: 1973
Жанр: Триллер
Описание фильма:
Фильм, действие которого происходит во Франции в начале 60-х годов, основан на реальных событиях. Картина воспроизводит историю покушения на жизнь президента Франции Шарля де Голля, предпринятую ультраправой террористической организации ОАС. Исполнителем воли преступников стал опытный наемный убийца по кличке Шакал, согласившийся выполнить эту работу на полмиллиона долларов...
Режиссер: Фред Циннеман
Актеры: Эдвард Фокс, Алан Бадел, Тони Бриттон, Сирил Кьюсак, Микаэль Лонсдаль, Дельфин Сейриг, Эрик Портер, Дерек Джекоби, Рональд Пикап, Мишель Оклер, Вернон Добчефф, Жак Франсуа, Ольга Жорж-Пико
Продолжительность: 02:16:37
Качество видео: HDTVRip (720p)
Перевод 1: Многоголосый закадровый (Н-кино)
Перевод 2: Профессиональный двухголосый (НТВ)
Язык субтитров: Английские
Вид субтитров: Вшитые

Дата мировой премьеры: 16 мая 1973
Дата выхода DVD релиза: 20 мая 2010, «Новый Диск»

Видеокодек: MPEG-4 AVC/H.264
Битрейт видео: ~6000 Кбит/с
Размер кадра: 1280x694
Аудио 1: AC3 Русский 2.0 / 48 kHz / 192 kbps / 16-bit Профессиональный многоголосый (Н-кино)
Аудио 2: AC3 Русский 2.0 / 48 kHz / 192 kbps / 16-bit Профессиональный двухголосый (НТВ)
Аудио 3: AC3 Английский 2.0 / 48 kHz / 384 kbps / 16-bit Оригинал
Сэмпл: Ссылка

MediaInfo

Общее
Уникальный идентификатор : 174614406690129177977770137168965468454 (0x835D82EED1BC8C10AF812D6272C70126)
Полное имя : C:\Xvid4PSP\The Day of the Jackal.1973. HDTVRip (720p).mkv
Формат : Matroska
Версия формата : Version 4 / Version 2
Размер файла : 6,46 Гбайт
Продолжительность : 2 ч. 16 м.
Общий поток : 6767 Кбит/сек
Название фильма : The Day of the Jackal (1973)
Дата кодирования : UTC 2013-06-29 17:14:55
Программа кодирования : mkvmerge v6.3.0 ('You can't stop me!') built on Jun 28 2013 20:09:41
Библиотека кодирования : libebml v1.3.0 + libmatroska v1.4.0
Видео
Идентификатор : 1
Формат : AVC
Формат/Информация : Advanced Video Codec
Профиль формата : High@L4.1
Параметр CABAC формата : Да
Параметр ReFrames формата : 9 кадров
Идентификатор кодека : V_MPEG4/ISO/AVC
Продолжительность : 2 ч. 16 м.
Битрейт : 6000 Кбит/сек
Ширина : 1280 пикселей
Высота : 694 пикселя
Соотношение сторон : 1,85:1
Режим частоты кадров : Постоянный
Частота кадров : 25,000 кадров/сек
Цветовое пространство : YUV
Субдискретизация насыщенности : 4:2:0
Битовая глубина : 8 бит
Тип развёртки : Прогрессивная
Бит/(Пиксели*Кадры) : 0.270
Размер потока : 5,60 Гбайт (87%)
Библиотека кодирования : x264 core 128 r2216 198a7ea
Настройки программы : cabac=1 / ref=9 / deblock=1:-3:-3 / analyse=0x3:0x133 / me=tesa / subme=10 / psy=1 / psy_rd=1.10:0.05 / mixed_ref=1 / me_range=24 / chroma_me=1 / trellis=2 / 8x8dct=1 / cqm=0 / deadzone=21,11 / fast_pskip=0 / chroma_qp_offset=-3 / threads=12 / lookahead_threads=2 / sliced_threads=0 / nr=0 / decimate=0 / interlaced=0 / bluray_compat=0 / constrained_intra=0 / bframes=8 / b_pyramid=2 / b_adapt=2 / b_bias=0 / direct=3 / weightb=1 / open_gop=0 / weightp=2 / keyint=250 / keyint_min=25 / scenecut=40 / intra_refresh=0 / rc_lookahead=60 / rc=2pass / mbtree=1 / bitrate=6000 / ratetol=1.0 / qcomp=0.75 / qpmin=0 / qpmax=69 / qpstep=4 / cplxblur=20.0 / qblur=0.5 / vbv_maxrate=50000 / vbv_bufsize=62500 / nal_hrd=none / ip_ratio=1.40 / aq=1:0.60
Язык : English
Default : Да
Forced : Нет
Аудио #1
Идентификатор : 2
Формат : AC-3
Формат/Информация : Audio Coding 3
Расширение режима : CM (complete main)
Параметр Endianness формата : Big
Идентификатор кодека : A_AC3
Продолжительность : 2 ч. 16 м.
Вид битрейта : Постоянный
Битрейт : 192 Кбит/сек
Каналы : 2 канала
Расположение каналов : Front: L R
Частота : 48,0 КГц
Битовая глубина : 16 бит
Метод сжатия : С потерями
Размер потока : 188 Мбайт (3%)
Заголовок : MVO Н-Кино AC3 192 kBit/s 48 kHz 2.0 DD
Язык : Russian
Default : Нет
Forced : Нет
Аудио #2
Идентификатор : 3
Формат : AC-3
Формат/Информация : Audio Coding 3
Расширение режима : CM (complete main)
Параметр Endianness формата : Big
Идентификатор кодека : A_AC3
Продолжительность : 2 ч. 16 м.
Вид битрейта : Постоянный
Битрейт : 192 Кбит/сек
Каналы : 2 канала
Расположение каналов : Front: L R
Частота : 48,0 КГц
Битовая глубина : 16 бит
Метод сжатия : С потерями
Размер потока : 188 Мбайт (3%)
Заголовок : DVO НТВ AC3 192 kBit/s 48 kHz 2.0 DD
Язык : Russian
Default : Нет
Forced : Нет
Аудио #3
Идентификатор : 4
Формат : AC-3
Формат/Информация : Audio Coding 3
Профиль формата : Dolby Digital
Расширение режима : CM (complete main)
Параметр Endianness формата : Big
Идентификатор кодека : A_AC3
Продолжительность : 2 ч. 16 м.
Вид битрейта : Постоянный
Битрейт : 384 Кбит/сек
Каналы : 2 канала
Расположение каналов : Front: L R
Частота : 48,0 КГц
Битовая глубина : 16 бит
Метод сжатия : С потерями
Размер потока : 375 Мбайт (6%)
Заголовок : English AC3 384 kBit/s 48 kHz 2.0 DD
Язык : English
Default : Нет
Forced : Нет
Текст
Идентификатор : 5
Формат : UTF-8
Идентификатор кодека : S_TEXT/UTF8
Идентификатор кодека/Информация : UTF-8 Plain Text
Заголовок : English
Язык : English
Default : Нет
Forced : Нет
Скриншоты:

Время раздачи: 24/7

[Цитировать]



Показать сообщения:    

Текущее время: 09-Дек 22:25

Часовой пояс: UTC + 3


Вы не можете начинать темы
Вы не можете отвечать на сообщения
Вы не можете редактировать свои сообщения
Вы не можете удалять свои сообщения
Вы не можете голосовать в опросах
Вы не можете прикреплять файлы к сообщениям
Вы не можете скачивать файлы

!ВНИМАНИЕ!
Сайт не предоставляет электронные версии произведений, а занимается лишь коллекционированием и каталогизацией ссылок, присылаемых и публикуемых на форуме нашими читателями. Если вы являетесь правообладателем какого-либо представленного материала и не желаете, чтобы ссылка на него находилась в нашем каталоге, свяжитесь с нами, и мы незамедлительно удалим ее. Файлы для обмена на трекере предоставлены пользователями сайта, и администрация не несет ответственности за их содержание. Просьба не заливать файлы, защищенные авторскими правами, а также файлы нелегального содержания!