[ Сегодня идет свободное скачивание без начисления Download ]


Статистика раздачи
Нет
 
   
 
Top  
 
 
-Эпоха алчности / Bailout: The Age of Greed (2013) BDRip- Год выпуска: 2013
Производство: Канада, Lynn Peak Productions
Жанр: Драма, Триллер
Перевод: Одноголосый закадровый, любительский
Озвучка / Автор перевода: den904 / Janetta
Дата мировой премьеры: 10 мая 2013
Режиссер: Уве Болл
Актеры: Доминик Пёрселл, Эрин Карплак, Эдвард Ферлонг, Джон Хёрд, Кит Дэвид, Майкл Паре, Локлин Манро, Тайрон Лейтсо, Майк Допуд, Барклай Хоуп, Эрик Робертс, Хезер Вини ...
Описание фильма:
Это история обычного, среднестатистического жителя Нью-Йорка, с хорошей работой и счастливой семьей. После того, как наступает экономический кризис, он лишается работы и будучи в отчаянии он берет оружие и отправляется мстить за свою испорченную жизнь.

Продолжительность: 01:38:24
Качество видео: BDRip 1080p
Видеокодек: MPEG-4 AVC/H.264
Видео: 11.3 Мбит/с, 1920x1080, 23.976 кадр/с
Аудио #1: Русский: AC3 5.1, 384 Кбит/с, 48 kHz, 16 bit
Аудио #2: Английский: AC3 5.1, 448 Кбит/с, 48 kHz, 16 bit
Сохранены оригинальные чаптеры как на Blu-Ray

Рецензия, отзыв о фильме:

Теперь у него развязаны руки
Фильм судя по рейтингу и по количеству рецензий оставшийся незаслуженно обделенным вниманием и, на мой взгляд, недооцененным. Сюжет фильма, что называется, на злобу дня, финансовый кризис приводит к тому, что бедные становятся ещё беднее, а богатые еще богаче. Но никакие деньги не защитят вас от смерти, если вдруг один из «черни» вдруг решается послать все к чертям собачьим и начать мстить всей продажной системе. Здесь показывается драма среднестатистического американца простого парня, законопослушного гражданина, примерного семьянина, хорошего друга, соседа, но… До тех пор пока система не отнимет у тебя всё и тогда уже, как было верно замечено выше, нечего терять. Доминик Пёрсел, запомнившийся мне по фильму «Профессионал», (тот, что со Стэтхемом) по моему мнению, как нельзя лучше подошел к этой роли и его герою искренне сопереживаешь и сочувствуешь, даже не смотря на то, что он творит. Так как первая часть фильма прекрасно показывает каким образом главный постепенно доходит до предела терпения.
Из похожих фильмов на ум приходят в первую очередь фильм «С меня хватит» с Майклом Дугласом, «Боже благослови Америку» и частично схожий по сюжету «Законопослушный гражданин». Такие фильмы всегда будут востребованы, так как идея торжества справедливости любой ценой, идея возмездия это беспроигрышная ставка на успех. Честно говоря из-за сходства с этими фильмами я уже был готов к определенной схеме развития событий и к определенной развязке, но не тут то было. Что ж, Браво! Уве Болл, концовка порадовала своей неожиданностью, да и не только этим. Безусловно фильм не лишен недостатков, скажем так, в паре мест поведение главного героя мне показалось не логичным, но это пожалуй всё. Ещё не могу не отметить атмосферу переданную музыкой, она погружает во внутренних мир героя и его переживания. Без неё фильм был бы преснее и суше. Фильм оставляет в задумчивости. Да и пусть на всякий случай задумаются те, кто оставляет людей ни с чем, поверьте, после просмотра этого фильма вы поймете, что это очень опасно.
9 из 10

MediaInfo:

Общее
Уникальный идентификатор : 232445740124668072107785071508098343832 (0xAEDF6BCF8320D1C2BFCA58B19B476398)
Полное имя : D:\Video\assault.on.wall.street.2013.1080p.bluray.x264-publichd.mkv
Формат : Matroska
Версия формата : Version 4 / Version 2
Размер файла : 8,54 Гбайт
Продолжительность : 1 ч. 38 м.
Общий поток : 12,4 Мбит/сек
Дата кодирования : UTC 2013-07-06 16:42:04
Программа кодирования : mkvmerge v6.1.0 ('Old Devil') built on Mar 2 2013 14:32:37
Библиотека кодирования : libebml v1.3.0 + libmatroska v1.4.0
Видео
Идентификатор : 1
Формат : AVC
Формат/Информация : Advanced Video Codec
Профиль формата : [email protected]
Параметр CABAC формата : Да
Параметр ReFrames формата : 4 кадра
Идентификатор кодека : V_MPEG4/ISO/AVC
Продолжительность : 1 ч. 38 м.
Битрейт : 11,3 Мбит/сек
Ширина : 1920 пикселей
Высота : 1080 пикселей
Соотношение сторон : 16:9
Частота кадров : 23,976 кадра/сек
Цветовое пространство : YUV
Субдискретизация насыщенности : 4:2:0
Битовая глубина : 8 бит
Тип развёртки : Прогрессивная
Бит/(Пиксели*Кадры) : 0.227
Размер потока : 7,79 Гбайт (91%)
Библиотека кодирования : x264 core 133 r2334+704+50 a7549b7 tMod [[email protected]:2:0 X86]
Настройки программы : cabac=1 / ref=4 / deblock=1:-3:-3 / analyse=0x3:0x113 / me=umh / subme=10 / psy=1 / fade_compensate=0.00 / psy_rd=1.25:0.00 / mixed_ref=1 / me_range=32 / chroma_me=1 / trellis=2 / 8x8dct=1 / cqm=0 / deadzone=21,11 / fast_pskip=1 / chroma_qp_offset=-2 / threads=36 / lookahead_threads=6 / sliced_threads=0 / nr=0 / decimate=1 / interlaced=0 / bluray_compat=0 / constrained_intra=0 / fgo=0 / bframes=8 / b_pyramid=2 / b_adapt=2 / b_bias=0 / direct=3 / weightb=1 / open_gop=0 / weightp=2 / keyint=240 / keyint_min=23 / scenecut=40 / intra_refresh=0 / rc_lookahead=80 / rc=crf / mbtree=1 / crf=17.9000 / qcomp=0.80 / qpmin=0 / qpmax=69 / qpstep=4 / vbv_maxrate=50000 / vbv_bufsize=50000 / crf_max=0.0 / nal_hrd=none / ip_ratio=1.40 / aq=2:0.85 / aq-sensitivity=10.00 / aq-factor=1.00:1.00:1.00 / aq2=0 / aq3=0
Язык : English
Default : Да
Forced : Нет
Аудио #1
Идентификатор : 2
Формат : AC-3
Формат/Информация : Audio Coding 3
Расширение режима : CM (complete main)
Идентификатор кодека : A_AC3
Продолжительность : 1 ч. 38 м.
Вид битрейта : Постоянный
Битрейт : 384 Кбит/сек
Каналы : 6 каналов
Расположение каналов : Front: L C R, Side: L R, LFE
Частота : 48,0 КГц
Битовая глубина : 16 бит
Метод сжатия : С потерями
Размер потока : 272 Мбайт (3%)
Язык : Russian
Default : Да
Forced : Нет
Аудио #2
Идентификатор : 3
Формат : AC-3
Формат/Информация : Audio Coding 3
Расширение режима : CM (complete main)
Идентификатор кодека : A_AC3
Продолжительность : 1 ч. 38 м.
Вид битрейта : Постоянный
Битрейт : 448 Кбит/сек
Каналы : 6 каналов
Расположение каналов : Front: L C R, Side: L R, LFE
Частота : 48,0 КГц
Битовая глубина : 16 бит
Метод сжатия : С потерями
Размер потока : 317 Мбайт (4%)
Язык : English
Default : Нет
Forced : Нет
Меню
00:00:00.000 : en:00:00:00.000
00:07:42.629 : en:00:07:42.629
00:12:35.546 : en:00:12:35.546
00:19:09.231 : en:00:19:09.231
00:25:09.842 : en:00:25:09.842
00:32:47.048 : en:00:32:47.048
00:38:35.438 : en:00:38:35.438
00:44:55.484 : en:00:44:55.484
00:51:40.639 : en:00:51:40.639
00:58:36.054 : en:00:58:36.054
01:04:29.032 : en:01:04:29.032
01:12:43.859 : en:01:12:43.859
01:17:41.699 : en:01:17:41.699
01:24:58.802 : en:01:24:58.802
01:29:15.892 : en:01:29:15.892
01:36:39.627 : en:01:36:39.627

Субтитры отдельно (Rus/Eng)

Скачать
Скриншоты:


Время раздачи: с 10:00 до 20:00 (GMT+2) - до 15 скачавшихНе забываем говорить

[Цитировать]

Топик был перенесен из форума Новинки кинопроката (HD Video) в форум Зарубежное кино (HD Video)
Bootch



Показать сообщения:    

Текущее время: 04-Дек 06:59

Часовой пояс: UTC + 3


Вы не можете начинать темы
Вы не можете отвечать на сообщения
Вы не можете редактировать свои сообщения
Вы не можете удалять свои сообщения
Вы не можете голосовать в опросах
Вы не можете прикреплять файлы к сообщениям
Вы не можете скачивать файлы

!ВНИМАНИЕ!
Сайт не предоставляет электронные версии произведений, а занимается лишь коллекционированием и каталогизацией ссылок, присылаемых и публикуемых на форуме нашими читателями. Если вы являетесь правообладателем какого-либо представленного материала и не желаете, чтобы ссылка на него находилась в нашем каталоге, свяжитесь с нами, и мы незамедлительно удалим ее. Файлы для обмена на трекере предоставлены пользователями сайта, и администрация не несет ответственности за их содержание. Просьба не заливать файлы, защищенные авторскими правами, а также файлы нелегального содержания!