[ Сегодня идет свободное скачивание без начисления Download ]


Статистика раздачи
Нет
 
   
 
Top  
 
 
-Вечеринка / Afterparty (2013) HDRip- Год выпуска: 2013
Производство: Испания / Llanero Films, Telecinco Cinema, Telespan 2000
Жанр: Ужасы
Перевод: Любительский одноголосый (den904)
Субтитры: Отсутствуют
Дата мировой премьеры: 5 апреля 2013
Режиссер: Мигель Ларрайа Валенсуела
Продюсер: Альваро Аугустин, Томаш Симадевийя, Беатриз Делгадо
Актеры: Алисия Санс, Урсула Корберо, Луис Фернандес, Андреа Дуэсо, Давид Сеихо, Фернандо Луечес, Ева Угарте, Хуан Бланко, Росио Леон, Ана Кальдас
Описание фильма:
Карлос — телезвезда и кумир молодёжи, развлекается на дикой вечеринке с самыми прекрасными девушками. На следующее утро он просыпается в неизвестном заброшенном доме с тремя девушками, с которыми развлекался прошлой ночью. Молодые люди не могут связаться с внешним миром. Вскоре они осознают, что не одни в этом таинственном доме и понимают, что, возможно, им никогда оттуда не выбраться…

Продолжительность: 01:18:57
Качество видео: HDRip
Видеокодек: Xvid
Битрейт видео: ~1102 Kbit/s
Размер кадра: 720 x 304
Аудиокодек: MP3 2.0
Битрейт аудио: 128 Kbit/s

MediaInfo

Общее
Полное имя : D:\Торренты\РЕЛИЗЫ\Вечеринка.2013.HDRip.700Mb.avi
Формат : AVI
Формат/Информация : Audio Video Interleave
Размер файла : 700 Мбайт
Продолжительность : 1 ч. 18 м.
Общий поток : 1239 Кбит/сек
Программа кодирования : VirtualDubMod 1.5.10.2 (build 2540/release)
Библиотека кодирования : VirtualDubMod build 2540/release
Видео
Идентификатор : 0
Формат : MPEG-4 Visual
Профиль формата : Advanced Simple@L5
Параметр BVOP формата : 2
Параметр QPel формата : Нет
Параметр GMC формата : Без точки перехода
Параметр матрицы формата : Default (H.263)
Идентификатор кодека : XVID
Идентификатор кодека/Подсказка : XviD
Продолжительность : 1 ч. 18 м.
Битрейт : 1102 Кбит/сек
Ширина : 720 пикс.
Высота : 304 пикс.
Соотношение сторон : 2,35:1
Частота кадров : 23,976 кадр/сек
Цветовое пространство : YUV
Подвыборка цветности : 4:2:0
Битовая глубина : 8 бит
Тип развёртки : Прогрессивная
Метод сжатия : С потерями
Бит/(Пиксели*Кадры) : 0.210
Размер потока : 622 Мбайт (89%)
Библиотека кодирования : XviD 1.2.1 (UTC 2008-12-04)
Аудио
Идентификатор : 1
Формат : MPEG Audio
Версия формата : Version 1
Профиль формата : Layer 3
Режим : Joint stereo
Расширение режима : MS Stereo
Идентификатор кодека : 55
Идентификатор кодека/Подсказка : MP3
Продолжительность : 1 ч. 18 м.
Вид битрейта : Постоянный
Битрейт : 128 Кбит/сек
Каналы : 2 канала
Частота : 48,0 КГц
Метод сжатия : С потерями
Размер потока : 72,3 Мбайт (10%)
Выравнивание : Соединение по промежуткам
Продолжительность промежутка : 42 мс. (1,00 видеокадр)
Время предзагрузки промежутка : 504 ms
Скриншоты:
Время раздачи: 24/7 по возможности

[Цитировать]

Топик был перенесен из форума Новинки кинопроката в форум Ужасы
Henkok



Показать сообщения:    

Текущее время: 11-Дек 05:18

Часовой пояс: UTC + 3


Вы не можете начинать темы
Вы не можете отвечать на сообщения
Вы не можете редактировать свои сообщения
Вы не можете удалять свои сообщения
Вы не можете голосовать в опросах
Вы не можете прикреплять файлы к сообщениям
Вы не можете скачивать файлы

!ВНИМАНИЕ!
Сайт не предоставляет электронные версии произведений, а занимается лишь коллекционированием и каталогизацией ссылок, присылаемых и публикуемых на форуме нашими читателями. Если вы являетесь правообладателем какого-либо представленного материала и не желаете, чтобы ссылка на него находилась в нашем каталоге, свяжитесь с нами, и мы незамедлительно удалим ее. Файлы для обмена на трекере предоставлены пользователями сайта, и администрация не несет ответственности за их содержание. Просьба не заливать файлы, защищенные авторскими правами, а также файлы нелегального содержания!