[ Сегодня идет свободное скачивание без начисления Download ]


Статистика раздачи
Нет
 
   
 
Top  
 
 
-VA - Dream Dance vol. 68 (2013)- Год: 2013
Жанр: Trance, House
Продолжительность: 03:57:41
Кодек: MP3
Битрейт: ~245 кб/с (V0)
Тип битрейта: VBR
Треклист:
CD 1 01:16:24
1.Dream Dance Alliance (D.D. Alliance) - Diving (3:16)
2.Calvin Harris Feat. Ellie Goulding - I Need Your Love (3:44)
3.Armin Van Buuren Feat. Trevor Guthrie - This is What it Feels Like (3:23)
4.Tiesto Feat. Kyler England - Take Me (3:48)
5.Example - Say Nothing (Hardwell & Dannic Remix) (3:57)
6.Axwell - Center of the Universe (3:30)
7.Dimitri Vegas, Moguai & Like Mike - Mammoth (2:39)
8.Above & Beyond - Walter White (2:39)
9.Cosmic Gate - Storm Chaser (3:48)
10.Markus Schulz - The Spiritual Gateway (2:15)
11.Chicane & Ferry Corsten Feat. Christian Burns - One Thousand Suns (3:35)
12.4 Strings Feat. Seri - Ready to Fall (3:21)
13.Sander Van Doorn, Dubvision & Mako Feat. Mariana Bell - Into the Light (3:24)
14.Paul Oakenfold & Disfunktion Feat. Spitfire - Beautiful World (3:21)
15.Marco V and Doctors in Florence Feat. Jade Ross - Lotus (3:21)
16.Dubvision - Redux (3:27)
17.Osen & Baha - The Warrior (Lush & Simon Remix) (3:25)
18.Holmes & Watson - Dirty Dreams (3:30)
19.Alex Martello & Mat Twice - Need of You (Lush & Simon Remix) (3:10)
20.Ram - Smash (3:06)
21.Mandala Bros - Amen (3:38)
22.W&w - Thunder (2:50)
23.Ferry Corsten - Black Light (3:06)

CD 2 01:55:18

24.Jam & Spoon Feat. Plavka Vs. David May & Amfree - Right in the Night (Bodybangers Remix) (3:31)
25.Bodybangers Feat. Tony T. - Breaking the Ice (3:36)
26.Pulsedriver - Cambodia (3:14)
27.G&g Vs Dave Darell Feat. Robin Bengtsson - Paper Cuts (3:05)
28.DJ Quicksilver - I'll Be Waiting (Cj Stone Remix) (3:27)
29.Rasmus Faber Feat. Linus Norda - We Laugh We Dance We Cry (3:45)
30.Glasperlenspiel - Nie Vergessen (Yos Remix) (3:59)
31.Apollo - Away (Megara Vs DJ Lee Remix) (3:27)
32.Nevs & Tyrell - Good Times (3:08)
33.Mason Tyler - Bring Back the Love (3:46)
34.Point Blank - Insanity (3:26)
35.Vicetone Feat. Jonny Rose - Stars (3:59)
36.Viky Red - If You Ever Feel (Reboost Remix) (3:51)
37.Cubica Feat. Cristiano De Brito - Come Along (3:57)
38.Level Zero Vs. Tribune - Garden of Fire (3:08)
39.Azzido@schwarz Feat. Don L. Castor - Don't Talk Away (3:52)
40.Benjamin Franklin Feat. Ines - Poom Poom (Jeremy Arnold Remix) (3:49)
41.Madison - Never Surrender (3:48)
42.Pinch & Dash Feat. Dee Dee - Show Me Love (Tribune Remix) (3:36)
43.Max K. Feat. Gerald G! - Take it to the Limit (Sunset Project Remix) (3:24)
44.Tomtrax - Mono 2 Stereo (Empyre One Remix) (3:14)
45.Quick & Sem - This Night (3:40)

CD 3 01:19:19

46.Giuseppe Ottaviani with Eric Lumiere - Love Will Bring it All Around (Rank 1 Remix) (2:58)
47.Daniel Kandi Feat. Sarah Russell - Change the World (4:09)
48.George Acosta with Ben Hague - Time Stood Still (4:27)
49.Juventa & Karanda Feat. Roxanne Barton - Ethereal (3:34)
50.Store N Forward and Hannah Ray - Hero (3:51)
51.York Vs DJ Shog and Vintage & Morelli - A.F.R.I.C.A. (Short Edit) (3:48)
52.M.I.K.E. - Canvas (4:07)
53.C-Systems Feat. Hanna Finsen - Listen to the Wind (3:19)
54.Andy Duguid & Julie Thompson - Skin & Bones (4:00)
55.Dart Rayne & Yura Moonlight & Sarah Lynn - Silhouette (4:03)
56.Nolita - No Way Back (3:37)
57.Aneym & Suncatcher - Together Again (3:54)
58.Jorn Van Deynhoven - Cheeky (3:27)
59.Mike Shiver & Samuel Jason - Trouse (3:45)
60.Maor Levi - Holding on (4:01)
61.Ablaze, Rene & Charles Mcthorn - Purple (3:21)
62.Solid Stone - Grid (4:02)
63.Raven & Kleekamp - Athina (3:14)
64.Aly & Fila Feat. Chris Jones - Running Out of Time (Uplifting Edit) (4:02)
65.Trance Arts Feat. Carie - Eternity (3:51)
66.Skyrosphere - Atmosphere (3:38)

MediaInfo Dream Dance Alliance (D.D. Alliance) - Diving

Формат : MPEG Audio
Размер файла : 5,73 Мбайт
Продолжительность : 3 м. 16 с.
Режим общего битрейта : Переменный
Общий поток : 245 Кбит/сек
Альбом : Dream Dance Vol.68
Трек : Diving
Трек/Положение : 1
Исполнитель : Dream Dance Alliance (D.D. Alliance)
Кодирование произвёл : LAME 3.98.4 V0: Preset Extreme
Жанр : Trance
Дата записи : 2013
Библиотека кодирования : LAME3.98r
Примечание : .
URL : Www.Dreamdance.De
Аудио
Формат : MPEG Audio
Версия формата : Version 1
Профиль формата : Layer 3
Режим : Joint stereo
Продолжительность : 3 м. 16 с.
Вид битрейта : Переменный
Битрейт : 245 Кбит/сек
Минимальный битрейт : 32,0 Кбит/сек
Каналы : 2 канала
Частота : 44,1 КГц
Метод сжатия : С потерями
Размер потока : 5,73 Мбайт
Библиотека кодирования : LAME3.98r
Настройки программы : -m j -V 0 -q 0 -lowpass 19.5 --vbr-new -b 32
Язык : English

MediaInfo Tiesto Feat. Kyler England - Take Me

Формат : MPEG Audio
Размер файла : 7,37 Мбайт
Продолжительность : 3 м. 48 с.
Режим общего битрейта : Переменный
Общий поток : 271 Кбит/сек
Альбом : Dream Dance Vol.68
Трек : Take Me
Трек/Положение : 5
Исполнитель : Tiesto Feat. Kyler England
Кодирование произвёл : LAME 3.98.4 V0: Preset Extreme
Жанр : Trance
Дата записи : 2013
Библиотека кодирования : LAME3.98r
Примечание : .
URL : Www.Dreamdance.De
Аудио
Формат : MPEG Audio
Версия формата : Version 1
Профиль формата : Layer 3
Режим : Joint stereo
Продолжительность : 3 м. 48 с.
Вид битрейта : Переменный
Битрейт : 271 Кбит/сек
Минимальный битрейт : 32,0 Кбит/сек
Каналы : 2 канала
Частота : 44,1 КГц
Метод сжатия : С потерями
Размер потока : 7,37 Мбайт
Библиотека кодирования : LAME3.98r
Настройки программы : -m j -V 0 -q 0 -lowpass 19.5 --vbr-new -b 32
Язык : English
Время раздачи: c 16 до 03:00 или по мере возможности

[Цитировать]



Показать сообщения:    

Текущее время: 08-Дек 17:16

Часовой пояс: UTC + 3


Вы не можете начинать темы
Вы не можете отвечать на сообщения
Вы не можете редактировать свои сообщения
Вы не можете удалять свои сообщения
Вы не можете голосовать в опросах
Вы не можете прикреплять файлы к сообщениям
Вы не можете скачивать файлы

!ВНИМАНИЕ!
Сайт не предоставляет электронные версии произведений, а занимается лишь коллекционированием и каталогизацией ссылок, присылаемых и публикуемых на форуме нашими читателями. Если вы являетесь правообладателем какого-либо представленного материала и не желаете, чтобы ссылка на него находилась в нашем каталоге, свяжитесь с нами, и мы незамедлительно удалим ее. Файлы для обмена на трекере предоставлены пользователями сайта, и администрация не несет ответственности за их содержание. Просьба не заливать файлы, защищенные авторскими правами, а также файлы нелегального содержания!