[ Сегодня идет свободное скачивание без начисления Download ]


Статистика раздачи
Нет
 
   
 
Top  
 
 
Ешь, молись, люби / Eat Pray Love-«Let Yourself Go This August»- Страна: США
Жанр: мелодрама, драма
Год выпуска: 2010
Продолжительность: 02:20:05
Перевод: Профессиональный (дублированный)
Русские субтитры: есть (иностр.диалоги, надписи)
Режиссер: Райан Мерфи / Ryan Murphy
В ролях: Джулия Робертс, Хавьер Бардем, Билли Крудап, Виола Дэвис, Майк О`Мэлли, Эшли Эткинсон, Джеймс Франко, Ричард Дженкинс, Софи Томпсон, Лиза Робертс...
Описание: Замужняя женщина Элизабет Гилберт в один прекрасный день понимает, что живёт совершенно не той жизнью, которой хотела. После болезненного развода она отправляется в путешествие по миру, которое поможет ей открыть новые горизонты и познать себя.- -Доп. информация:
Сохранены оригинальные чаптеры как на Blu-ray.

Качество: BDRip 720p
Контейнер: MKV
Источник: Eat Pray Love Blu ray 1080p AVC DTS-HD MA-TV2Lv2
Видео: 1280x692 at 23.976 fps, x264@L4.1, crf, ~6281 kbps avg
Аудио #1: Russian: 48 kHz, AC3, 3/2 (L,C,R,l,r) + LFE ch, ~448.00 kbps avg |Дубляж, R5|
Аудио #1: Ukrainian: 48 kHz, AC3, 3/2 (L,C,R,l,r) + LFE ch, ~448.00 kbps avg |Дубляж, R5|
Аудио #3: English: 48 kHz, DTS, 3/2 (L,C,R,l,r) + LFE ch, ~1536.00 kbps avg
Cубтитры: Russian (forced), English

x264 information

---[NoImage] x264 [info]: frame I:1941 Avg QP:15.18 size:132475
---[NoImage] x264 [info]: frame P:40531 Avg QP:16.70 size: 63415
---[NoImage] x264 [info]: frame B:159056 Avg QP:19.30 size: 23713
---[NoImage] x264 [info]: consecutive B-frames: 0.8% 1.8% 3.7% 24.3% 15.4% 32.0% 7.4% 14.6%
---[NoImage] x264 [info]: ref P L0: 47.5% 9.8% 22.6% 7.5% 7.4% 4.8% 0.4% 0.0%
---[NoImage] x264 [info]: ref B L0: 78.1% 13.2% 5.8% 2.2% 0.8%
---[NoImage] x264 [info]: ref B L1: 94.0% 6.0%

screenshots

source --> encode (B-frames)




mediainfo

General
Complete name : Eat.Pray.Love.TC.2010.720p.BluRay.Rus.Ukr.Eng.HDCLUB.mkv
Format : Matroska
File size : 8.50 GiB
Duration : 2h 20mn
Overall bit rate : 8 689 Kbps
Movie name : Eat Pray Love (2010) - Release for HDCLUB
Encoded date : UTC 2010-11-28 11:04:59
Writing application : mkvmerge v4.4.0 ('Die Wiederkehr') сборка от Oct 31 2010 21:52:48
Writing library : libebml v1.0.0 + libmatroska v1.0.0
Video
ID : 1
Format : AVC
Format/Info : Advanced Video Codec
Format profile : High@L4.1
Format settings, CABAC : Yes
Format settings, ReFrames : 6 frames
Codec ID : V_MPEG4/ISO/AVC
Duration : 2h 20mn
Bit rate : 6 110 Kbps
Width : 1 280 pixels
Height : 692 pixels
Display aspect ratio : 1.850
Frame rate : 23.976 fps
Color space : YUV
Chroma subsampling : 4:2:0
Bit depth : 8 bits
Scan type : Progressive
Bits/(Pixel*Frame) : 0.288
Stream size : 5.98 GiB (70%)
Title : Eat Pray Love (2010) - Release for HDCLUB
Writing library : x264 core 107 r1766 f9f0035
Encoding settings : cabac=1 / ref=6 / deblock=1:-3:-3 / analyse=0x3:0x113 / me=esa / subme=10 / psy=1 / psy_rd=0.90:0.05 / mixed_ref=1 / me_range=24 / chroma_me=1 / trellis=2 / 8x8dct=1 / cqm=0 / deadzone=21,11 / fast_pskip=0 / chroma_qp_offset=-3 / threads=6 / sliced_threads=0 / nr=0 / decimate=1 / interlaced=0 / constrained_intra=0 / bframes=7 / b_pyramid=2 / b_adapt=2 / b_bias=0 / direct=1 / weightb=1 / open_gop=0 / weightp=2 / keyint=250 / keyint_min=23 / scenecut=40 / intra_refresh=0 / rc=crf / mbtree=0 / crf=16.9 / qcomp=0.60 / qpmin=10 / qpmax=51 / qpstep=4 / ip_ratio=1.40 / pb_ratio=1.30 / aq=1:0.80
Language : English
Audio #1
ID : 2
Format : AC-3
Format/Info : Audio Coding 3
Mode extension : CM (complete main)
Codec ID : A_AC3
Duration : 2h 20mn
Bit rate mode : Constant
Bit rate : 448 Kbps
Channel(s) : 6 channels
Channel positions : Front: L C R, Side: L R, LFE
Sampling rate : 48.0 KHz
Bit depth : 16 bits
Compression mode : Lossy
Stream size : 449 MiB (5%)
Title : дубляж [ac3 6ch 448 kbps]
Language : Russian
Audio #2
ID : 3
Format : AC-3
Format/Info : Audio Coding 3
Mode extension : CM (complete main)
Codec ID : A_AC3
Duration : 2h 20mn
Bit rate mode : Constant
Bit rate : 448 Kbps
Channel(s) : 6 channels
Channel positions : Front: L C R, Side: L R, LFE
Sampling rate : 48.0 KHz
Bit depth : 16 bits
Compression mode : Lossy
Stream size : 449 MiB (5%)
Title : дубляж [ac3 6ch 448 kbps]
Language : Ukrainian
Audio #3
ID : 4
Format : DTS
Format/Info : Digital Theater Systems
Codec ID : A_DTS
Duration : 2h 20mn
Bit rate mode : Constant
Bit rate : 1 510 Kbps
Channel(s) : 6 channels
Channel positions : Front: L C R, Side: L R, LFE
Sampling rate : 48.0 KHz
Bit depth : 24 bits
Compression mode : Lossy
Stream size : 1.48 GiB (17%)
Title : original [dts 6ch 1509 kbps]
Language : English
Text #1
ID : 5
Format : UTF-8
Codec ID : S_TEXT/UTF8
Codec ID/Info : UTF-8 Plain Text
Title : forced
Language : Russian
Text #2
ID : 6
Format : UTF-8
Codec ID : S_TEXT/UTF8
Codec ID/Info : UTF-8 Plain Text
Language : English
Menu
00:00:00.000 : en:00:00:00.000
00:10:37.846 : en:00:10:37.846
00:18:37.366 : en:00:18:37.366
00:28:38.156 : en:00:28:38.156
00:36:54.354 : en:00:36:54.354
00:43:20.565 : en:00:43:20.565
00:52:30.489 : en:00:52:30.489
00:58:28.256 : en:00:58:28.256
01:08:10.115 : en:01:08:10.115
01:13:46.868 : en:01:13:46.868
01:19:56.862 : en:01:19:56.862
01:32:58.852 : en:01:32:58.852
01:38:34.604 : en:01:38:34.604
01:47:10.745 : en:01:47:10.745
01:56:40.147 : en:01:56:40.147
02:07:20.912 : en:02:07:20.912

[Цитировать]



Показать сообщения:    

Текущее время: 08-Дек 19:03

Часовой пояс: UTC + 3


Вы не можете начинать темы
Вы не можете отвечать на сообщения
Вы не можете редактировать свои сообщения
Вы не можете удалять свои сообщения
Вы не можете голосовать в опросах
Вы не можете прикреплять файлы к сообщениям
Вы не можете скачивать файлы

!ВНИМАНИЕ!
Сайт не предоставляет электронные версии произведений, а занимается лишь коллекционированием и каталогизацией ссылок, присылаемых и публикуемых на форуме нашими читателями. Если вы являетесь правообладателем какого-либо представленного материала и не желаете, чтобы ссылка на него находилась в нашем каталоге, свяжитесь с нами, и мы незамедлительно удалим ее. Файлы для обмена на трекере предоставлены пользователями сайта, и администрация не несет ответственности за их содержание. Просьба не заливать файлы, защищенные авторскими правами, а также файлы нелегального содержания!