[ Сегодня идет свободное скачивание без начисления Download ]


Статистика раздачи
Нет
 
   
 
Top  
 
 
-Порочные игры / Stoker (2013) BDRemux
«Do not disturb the family.»
- Русское название: Порочные игры
Оригинальное название: Stoker
Год выпуска: 2013
Производство: США, Великобритания / Fox Searchlight Pictures
Жанр: Триллер, Драма, Детектив
Перевод: Многоголосый закадровый, Одноголосый закадровый
Субтитры: Вшитые отключаемые
Язык субтитров: Русский, украинский, английский (full, SDH, SDH-Colored)
Режиссер: Пак Чхан Ук / Chan-wook Park
Продюсер: Майкл Костиган, Ридли Скотт, Тони Скотт
Актеры: Миа Васиковска, Мэттью Гуд, Николь Кидман, Дэвид Элфорд, Пег Аллен, Лорен Э. Роман, Филлис Соммервиль, Хармони Корин, Лукас Тилл, Олден Эйренрайк
Описание фильма:
История повествует про необычную девушку. У нее в жизни начались резкие изменения — сначала погибает отец, а потом его место занимает таинственный дядя, который решил взять опеку над осиротевшей семьей.
Дата мировой премьеры: 20 января 2013
Дата выхода DVD релиза: 15 августа 2013, «20 Век Фокс СНГ»
Дата выхода Blu-Ray релиза: 15 августа 2013, «20 Век Фокс СНГ»
Рейтинг R - Детям до 17 лет обязательно присутствие родителей

Продолжительность: 01:38:55
Качество видео: BDRemux
Видео: MPEG4_AVC/H.264, 1920x1080, ~33496 kbps, 23.976 fps
Аудио 1: DTS 5.1, 768 kbps, 48 kHz [Русский - многоголосый закадровый «Blu-ray EUR»]
Аудио 2: DTS-HD MA 5.1, 3474 kbps, 48 kHz [Русский - одноголосый закадровый «А. Дольский»]
Аудио 3: DTS-HD MA 5.1, 3633 kbps, 48 kHz [Английский - оригинал]
Аудио 4: AC3 5.1, 448 kbps, 48 kHz [Английский - Descriptive]

Отчёт MediaInfo

Полное имя : D:\Порочные.игры-Stoker.(2013).BDRemux.[1080p].mkv
Формат : Matroska
Версия формата : Version 2
Размер файла : 28,8 Гбайт
Продолжительность : 1 ч. 38 м.
Режим общего битрейта : Переменный
Общий поток : 41,6 Мбит/сек
Название фильма : Lelya_K for NNM-Club.ru
Дата кодирования : UTC 2013-07-09 17:45:56
Программа кодирования : mkvmerge v5.7.0 ('The Whirlwind') built on Aug 7 2012 14:11:40
Библиотека кодирования : libebml v1.2.3 + libmatroska v1.3.0
Видео
Идентификатор : 1
Формат : AVC
Формат/Информация : Advanced Video Codec
Профиль формата : High@L4.1
Параметр CABAC формата : Да
Параметр ReFrames формата : 4 кадра
Идентификатор кодека : V_MPEG4/ISO/AVC
Продолжительность : 1 ч. 38 м.
Вид битрейта : Переменный
Битрейт : 36,5 Мбит/сек
Максимальный битрейт : 35,5 Мбит/сек
Ширина : 1920 пикселей
Высота : 1080 пикселей
Соотношение сторон : 16:9
Режим частоты кадров : Постоянный
Частота кадров : 23,976 кадра/сек
Цветовое пространство : YUV
Субдискретизация насыщенности : 4:2:0
Битовая глубина : 8 бит
Тип развёртки : Прогрессивная
Бит/(Пиксели*Кадры) : 0.734
Размер потока : 25,2 Гбайт (88%)
Заголовок : Порочные.игры-Stoker.(2013).BDRemux.[1080p]
Язык : English
Default : Да
Forced : Нет
Аудио #1
Идентификатор : 2
Формат : DTS
Формат/Информация : Digital Theater Systems
Идентификатор кодека : A_DTS
Продолжительность : 1 ч. 38 м.
Вид битрейта : Постоянный
Битрейт : 755 Кбит/сек
Каналы : 6 каналов
Расположение каналов : Front: L C R, Side: L R, LFE
Частота : 48,0 КГц
Битовая глубина : 24 бит
Метод сжатия : С потерями
Размер потока : 534 Мбайт (2%)
Заголовок : DTS 5.1 / 768 kbps / Dub
Язык : Russian
Default : Да
Forced : Нет
Аудио #2
Идентификатор : 3
Формат : DTS
Формат/Информация : Digital Theater Systems
Профиль формата : MA / Core
Идентификатор кодека : A_DTS
Продолжительность : 1 ч. 38 м.
Вид битрейта : Переменный
Битрейт : 1561 Кбит/сек / 1510 Кбит/сек
Каналы : 6 каналов
Расположение каналов : Front: L C R, Side: L R, LFE
Частота : 48,0 КГц
Битовая глубина : 24 бит
Метод сжатия : Без потерь / Lossy
Заголовок : DTS-HD MA 5.1 / 3474 kbps / AVO - А.Дольский
Язык : Russian
Default : Нет
Forced : Нет
Аудио #3
Идентификатор : 4
Формат : DTS
Формат/Информация : Digital Theater Systems
Профиль формата : MA / Core
Идентификатор кодека : A_DTS
Продолжительность : 1 ч. 38 м.
Вид битрейта : Переменный
Битрейт : 1561 Кбит/сек / 1510 Кбит/сек
Каналы : 6 каналов
Расположение каналов : Front: L C R, Side: L R, LFE
Частота : 48,0 КГц
Битовая глубина : 24 бит
Метод сжатия : Без потерь / Lossy
Заголовок : DTS-HD MA 5.1 / 3633 kbps / Original
Язык : English
Default : Нет
Forced : Нет
Аудио #4
Идентификатор : 5
Формат : AC-3
Формат/Информация : Audio Coding 3
Расширение режима : CM (complete main)
Параметр Endianness формата : Big
Идентификатор кодека : A_AC3
Продолжительность : 1 ч. 38 м.
Вид битрейта : Постоянный
Битрейт : 448 Кбит/сек
Каналы : 6 каналов
Расположение каналов : Front: L C R, Side: L R, LFE
Частота : 48,0 КГц
Битовая глубина : 16 бит
Метод сжатия : С потерями
Размер потока : 317 Мбайт (1%)
Заголовок : Descriptive
Язык : English
Default : Нет
Forced : Нет
Текст #1
Идентификатор : 6
Формат : UTF-8
Идентификатор кодека : S_TEXT/UTF8
Идентификатор кодека/Информация : UTF-8 Plain Text
Язык : Russian
Default : Нет
Forced : Нет
Текст #2
Идентификатор : 7
Формат : UTF-8
Идентификатор кодека : S_TEXT/UTF8
Идентификатор кодека/Информация : UTF-8 Plain Text
Язык : Ukrainian
Default : Нет
Forced : Нет
Текст #3
Идентификатор : 8
Формат : UTF-8
Идентификатор кодека : S_TEXT/UTF8
Идентификатор кодека/Информация : UTF-8 Plain Text
Язык : English
Default : Нет
Forced : Нет
Текст #4
Идентификатор : 9
Формат : UTF-8
Идентификатор кодека : S_TEXT/UTF8
Идентификатор кодека/Информация : UTF-8 Plain Text
Заголовок : SDH
Язык : English
Default : Нет
Forced : Нет
Текст #5
Идентификатор : 10
Формат : UTF-8
Идентификатор кодека : S_TEXT/UTF8
Идентификатор кодека/Информация : UTF-8 Plain Text
Заголовок : SDH (COLORED)
Язык : English
Default : Нет
Forced : Нет
Меню
00:00:00.000 : en:Chapter 1
00:03:48.603 : en:Chapter 2
00:04:37.277 : en:Chapter 3
00:07:26.863 : en:Chapter 4
00:08:42.146 : en:Chapter 5
00:13:28.557 : en:Chapter 6
00:16:59.810 : en:Chapter 7
00:19:24.955 : en:Chapter 8
00:22:27.095 : en:Chapter 9
00:26:50.066 : en:Chapter 10
00:30:26.533 : en:Chapter 11
00:34:43.289 : en:Chapter 12
00:39:18.564 : en:Chapter 13
00:41:47.505 : en:Chapter 14
00:46:14.772 : en:Chapter 15
00:49:42.729 : en:Chapter 16
00:52:46.830 : en:Chapter 17
00:54:50.495 : en:Chapter 18
00:59:21.558 : en:Chapter 19
01:02:43.050 : en:Chapter 20
01:07:04.186 : en:Chapter 21
01:08:38.239 : en:Chapter 22
01:15:24.895 : en:Chapter 23
01:18:14.773 : en:Chapter 24
01:22:11.927 : en:Chapter 25
01:26:22.510 : en:Chapter 26
01:31:17.472 : en:Chapter 27
01:34:38.214 : en:Chapter 28
Скриншоты:


Время раздачи: 24/7 (до 10 скачавших)

[Цитировать]

Топик был перенесен из форума Новинки кинопроката (HD Video) в форум Зарубежное кино (HD Video)
Bootch



Показать сообщения:    

Текущее время: 02-Дек 21:10

Часовой пояс: UTC + 3


Вы не можете начинать темы
Вы не можете отвечать на сообщения
Вы не можете редактировать свои сообщения
Вы не можете удалять свои сообщения
Вы не можете голосовать в опросах
Вы не можете прикреплять файлы к сообщениям
Вы не можете скачивать файлы

!ВНИМАНИЕ!
Сайт не предоставляет электронные версии произведений, а занимается лишь коллекционированием и каталогизацией ссылок, присылаемых и публикуемых на форуме нашими читателями. Если вы являетесь правообладателем какого-либо представленного материала и не желаете, чтобы ссылка на него находилась в нашем каталоге, свяжитесь с нами, и мы незамедлительно удалим ее. Файлы для обмена на трекере предоставлены пользователями сайта, и администрация не несет ответственности за их содержание. Просьба не заливать файлы, защищенные авторскими правами, а также файлы нелегального содержания!