[ Сегодня идет свободное скачивание без начисления Download ]


Статистика раздачи
Нет
 
   
 
Top  
 
 
-Порочные игры / Stoker (2013) BDRip«Do not disturb the family.»- Год выпуска: 2013
Производство: США, Великобритания
Жанр: Триллер, Драма, Детектив
Перевод: Многоголосый закадровый, профессиональный
Субтитры: Вшитые отключаемые
Язык субтитров: Русский, Украинский, Английский (full, SDH, SDH-Colored)
Дата мировой премьеры: 20 января 2013
Дата выхода DVD релиза: 15 августа 2013, «Двадцатый Век Фокс СНГ»
Дата выхода Blu-Ray релиза: 15 августа 2013, «Двадцатый Век Фокс СНГ»
Режиссер: Пак Чхан Ук
Продюсер: Майкл Костиган, Ридли Скотт, Тони Скотт
Актеры: Миа Васиковска, Мэттью Гуд, Николь Кидман, Дермот Малруни, Джеки Уивер, Лукас Тилл, Олден Эйренрайк, Жюдит Годреш, Ральф Браун, Уильям Райан Уотсон
Описание фильма:
История повествует про необычную девушку. У нее в жизни начались резкие изменения — сначала погибает отец, а потом его место занимает таинственный дядя, который решил взять опеку над осиротевшей семьей.

Продолжительность: 01:38:55
Качество видео: BDRip 720p
Видеокодек: MPEG-4 AVC/H.264
Битрейт видео: ~9601 Kbit/s
Размер кадра: 1280 x 534
Aудио #1: DTS, 48,0 КHz, 5.1, 755 Kbit/s [Русский - многоголосый закадровый «Blu-ray EUR»]
Aудио #2: DTS, 48,0 КHz, 5.1, 1510 Kbit/s [Английский - оригинал]
Aудио #3: AC3, 48,0 КHz, 5.1, 448 Kbit/s [Английский - Descriptive]

MediaInfo

Общее
Уникальный идентификатор : 205674106705801677297078312125334839377 (0x9ABB645FF181CEF2A56DA98BA5546051)
Полное имя : D:\Торренты\Порочные игры.2013.720p.mkv
Формат : Matroska
Размер файла : 8,52 Гбайт
Продолжительность : 1 ч. 38 м.
Общий поток : 12,3 Мбит/сек
Дата кодирования : UTC 2013-07-09 13:44:23
Программа кодирования : mkvmerge v3.4.0 ('Rapunzel') built on May 15 2010 09:38:20
Библиотека кодирования : libebml v0.8.0 + libmatroska v0.9.0
Видео
Идентификатор : 1
Формат : AVC
Формат/Информация : Advanced Video Codec
Профиль формата : High@L4.1
Параметр CABAC формата : Да
Параметр ReFrames формата : 12 кадров
Идентификатор кодека : V_MPEG4/ISO/AVC
Продолжительность : 1 ч. 38 м.
Битрейт : 9601 Кбит/сек
Ширина : 1280 пикс.
Высота : 534 пикс.
Соотношение сторон : 2,35:1
Частота кадров : 23,976 кадр/сек
Цветовое пространство : YUV
Подвыборка цветности : 4:2:0
Битовая глубина : 8 бит
Тип развёртки : Прогрессивная
Бит/(Пиксели*Кадры) : 0.586
Размер потока : 6,48 Гбайт (76%)
Заголовок : Stoker (2013) - Release for HDCLUB
Библиотека кодирования : x264 core 130 r2273 b3065e6
Настройки программы : cabac=1 / ref=12 / deblock=1:-3:-3 / analyse=0x3:0x133 / me=umh / subme=9 / psy=1 / psy_rd=1.15:0.00 / mixed_ref=1 / me_range=32 / chroma_me=1 / trellis=2 / 8x8dct=1 / cqm=0 / deadzone=21,11 / fast_pskip=0 / chroma_qp_offset=-2 / threads=18 / lookahead_threads=4 / sliced_threads=0 / nr=0 / decimate=0 / interlaced=0 / bluray_compat=0 / constrained_intra=0 / bframes=12 / b_pyramid=2 / b_adapt=2 / b_bias=0 / direct=3 / weightb=1 / open_gop=0 / weightp=2 / keyint=250 / keyint_min=23 / scenecut=40 / intra_refresh=0 / rc=2pass / mbtree=0 / bitrate=9601 / ratetol=1.0 / qcomp=0.80 / qpmin=0 / qpmax=69 / qpstep=4 / cplxblur=20.0 / qblur=0.5 / ip_ratio=1.20 / pb_ratio=1.10 / aq=2:0.80 / zones=2000,2500,b=2/17800,18400,b=2/26800,27526,b=2/34362,34600,b=1.6/47500,47950,b=2.1/72937,85042,b=1.8
Язык : English
Коэффициенты матрицы : BT.709-5, BT.1361, IEC 61966-2-4 709, SMPTE RP177
Аудио #1
Идентификатор : 2
Формат : DTS
Формат/Информация : Digital Theater Systems
Идентификатор кодека : A_DTS
Продолжительность : 1 ч. 38 м.
Вид битрейта : Постоянный
Битрейт : 755 Кбит/сек
Каналы : 6 каналов
Расположение каналов : Front: L C R, Side: L R, LFE
Частота : 48,0 КГц
Битовая глубина : 24 бит
Метод сжатия : С потерями
Размер потока : 534 Мбайт (6%)
Заголовок : DTS 5.1 @ 768 kbps - MVO, Blu-ray EUR
Язык : Russian
Аудио #2
Идентификатор : 3
Формат : DTS
Формат/Информация : Digital Theater Systems
Идентификатор кодека : A_DTS
Продолжительность : 1 ч. 38 м.
Вид битрейта : Постоянный
Битрейт : 1510 Кбит/сек
Каналы : 6 каналов
Расположение каналов : Front: L C R, Side: L R, LFE
Частота : 48,0 КГц
Битовая глубина : 24 бит
Метод сжатия : С потерями
Размер потока : 1,04 Гбайт (12%)
Заголовок : DTS 5.1 @ 1536 kbps
Язык : English
Аудио #3
Идентификатор : 4
Формат : AC-3
Формат/Информация : Audio Coding 3
Расширение режима : CM (complete main)
Идентификатор кодека : A_AC3
Продолжительность : 1 ч. 38 м.
Вид битрейта : Постоянный
Битрейт : 448 Кбит/сек
Каналы : 6 каналов
Расположение каналов : Front: L C R, Side: L R, LFE
Частота : 48,0 КГц
Битовая глубина : 16 бит
Метод сжатия : С потерями
Размер потока : 317 Мбайт (4%)
Заголовок : AC3 5.1 @ 448 kbps - Descriptive
Язык : English
Текст #1
Идентификатор : 5
Формат : UTF-8
Идентификатор кодека : S_TEXT/UTF8
Идентификатор кодека/Информация : UTF-8 Plain Text
Язык : Russian
Текст #2
Идентификатор : 6
Формат : UTF-8
Идентификатор кодека : S_TEXT/UTF8
Идентификатор кодека/Информация : UTF-8 Plain Text
Язык : Ukrainian
Текст #3
Идентификатор : 7
Формат : UTF-8
Идентификатор кодека : S_TEXT/UTF8
Идентификатор кодека/Информация : UTF-8 Plain Text
Язык : English
Текст #4
Идентификатор : 8
Формат : UTF-8
Идентификатор кодека : S_TEXT/UTF8
Идентификатор кодека/Информация : UTF-8 Plain Text
Заголовок : SDH
Язык : English
Текст #5
Идентификатор : 9
Формат : UTF-8
Идентификатор кодека : S_TEXT/UTF8
Идентификатор кодека/Информация : UTF-8 Plain Text
Заголовок : SDH-COLORED
Язык : English
Меню
00:00:00.000 : en:00:00:00.000
00:03:48.603 : en:00:03:48.603
00:04:37.277 : en:00:04:37.277
00:07:26.863 : en:00:07:26.863
00:08:42.147 : en:00:08:42.147
00:13:28.558 : en:00:13:28.558
00:16:59.810 : en:00:16:59.810
00:19:24.955 : en:00:19:24.955
00:22:27.096 : en:00:22:27.096
00:26:50.067 : en:00:26:50.067
00:30:26.533 : en:00:30:26.533
00:34:43.290 : en:00:34:43.290
00:39:18.565 : en:00:39:18.565
00:41:47.505 : en:00:41:47.505
00:46:14.772 : en:00:46:14.772
00:49:42.730 : en:00:49:42.730
00:52:46.830 : en:00:52:46.830
00:54:50.496 : en:00:54:50.496
00:59:21.558 : en:00:59:21.558
01:02:43.051 : en:01:02:43.051
01:07:04.187 : en:01:07:04.187
01:08:38.239 : en:01:08:38.239
01:15:24.895 : en:01:15:24.895
01:18:14.773 : en:01:18:14.773
01:22:11.927 : en:01:22:11.927
01:26:22.511 : en:01:26:22.511
01:31:17.472 : en:01:31:17.472
01:34:38.214 : en:01:34:38.214
Скриншоты:
Время раздачи: 24/7 по возможности

[Цитировать]

Топик был перенесен из форума Новинки кинопроката (HD Video) в форум Зарубежное кино (HD Video)
Bootch



Показать сообщения:    

Текущее время: 07-Дек 11:43

Часовой пояс: UTC + 3


Вы не можете начинать темы
Вы не можете отвечать на сообщения
Вы не можете редактировать свои сообщения
Вы не можете удалять свои сообщения
Вы не можете голосовать в опросах
Вы не можете прикреплять файлы к сообщениям
Вы не можете скачивать файлы

!ВНИМАНИЕ!
Сайт не предоставляет электронные версии произведений, а занимается лишь коллекционированием и каталогизацией ссылок, присылаемых и публикуемых на форуме нашими читателями. Если вы являетесь правообладателем какого-либо представленного материала и не желаете, чтобы ссылка на него находилась в нашем каталоге, свяжитесь с нами, и мы незамедлительно удалим ее. Файлы для обмена на трекере предоставлены пользователями сайта, и администрация не несет ответственности за их содержание. Просьба не заливать файлы, защищенные авторскими правами, а также файлы нелегального содержания!