[ Сегодня идет свободное скачивание без начисления Download ]


Статистика раздачи
Нет
 
   
 
Top  
 
 
-Порочные игры / Stoker (2013) BDRip
«Do not disturb the family.»
- Русское название: Порочные игры
Оригинальное название: Stoker
Год выпуска: 2013
Производство: США, Великобритания / Fox Searchlight Pictures
Жанр: Триллер, Драма, Детектив
Перевод: Многоголосый закадровый, Одноголосый закадровый
Субтитры: Вшитые отключаемые
Язык субтитров: Русский, украинский, английский (full, SDH, SDH-Colored)
Режиссер: Пак Чхан Ук / Chan-wook Park
Продюсер: Майкл Костиган, Ридли Скотт, Тони Скотт
Актеры: Миа Васиковска, Мэттью Гуд, Николь Кидман, Дэвид Элфорд, Пег Аллен, Лорен Э. Роман, Филлис Соммервиль, Хармони Корин, Лукас Тилл, Олден Эйренрайк
Описание фильма:
История повествует про необычную девушку. У нее в жизни начались резкие изменения — сначала погибает отец, а потом его место занимает таинственный дядя, который решил взять опеку над осиротевшей семьей.
Дата мировой премьеры: 20 января 2013
Дата выхода DVD релиза: 15 августа 2013, «20 Век Фокс СНГ»
Дата выхода Blu-Ray релиза: 15 августа 2013, «20 Век Фокс СНГ»
Рейтинг R - Детям до 17 лет обязательно присутствие родителей

Продолжительность: 01:38:55
Качество видео: BDRip [HDWinG]
Видео: MPEG4_AVC/H.264, 1920x800 (2.40:1), ~15800 kbps, 23.976 fps
Аудио 1: DTS 5.1, 768 kbps, 48 kHz [Русский - многоголосый закадровый «Blu-ray EUR»]
Аудио 2: DTS 5.1, 1536 kbps, 48 kHz [Русский - одноголосый закадровый «А. Дольский»]
Аудио 3: DTS 5.1, 1536 kbps, 48 kHz [Английский - оригинал]
Аудио 4: AC3 5.1, 448 kbps, 48 kHz [Английский - Descriptive]

x264 log

x264 [info]: frame I:918 Avg QP:16.07 size:203791
x264 [info]: frame P:29758 Avg QP:16.40 size:118747
x264 [info]: frame B:111645 Avg QP:17.85 size: 74256
x264 [info]: consecutive B-frames: 1.2% 1.7% 14.3% 8.5% 17.7% 46.0% 4.7% 4.5% 1.4%

MediaInfo

Полное имя : D:\Порочные.игры-Stoker.(2013).BDRip.[1080p].mkv
Формат : Matroska
Версия формата : Version 2
Размер файла : 14,1 Гбайт
Продолжительность : 1 ч. 38 м.
Общий поток : 20,4 Мбит/сек
Название фильма : Stoker (2013) BDRip / NNM-Club.ru
Дата кодирования : UTC 2013-07-10 04:46:39
Программа кодирования : mkvmerge v5.7.0 ('The Whirlwind') built on Aug 7 2012 14:11:40
Библиотека кодирования : libebml v1.2.3 + libmatroska v1.3.0
Видео
Идентификатор : 1
Формат : AVC
Формат/Информация : Advanced Video Codec
Профиль формата : [email protected]
Параметр CABAC формата : Да
Параметр ReFrames формата : 5 кадров
Идентификатор кодека : V_MPEG4/ISO/AVC
Битрейт : 15,8 Мбит/сек
Ширина : 1920 пикселей
Высота : 800 пикселей
Соотношение сторон : 2,40:1
Режим частоты кадров : Переменный
Частота кадров в оригинале : 23,976 кадра/сек
Цветовое пространство : YUV
Субдискретизация насыщенности : 4:2:0
Битовая глубина : 8 бит
Тип развёртки : Прогрессивная
Библиотека кодирования : x264 core 132 r2323+704+51 d571b1c tMod [[email protected]:2:0 X86_64]
Настройки программы : cabac=1 / ref=5 / deblock=1:-3:-3 / analyse=0x3:0x113 / me=umh / subme=11 / psy=1 / fade_compensate=0.00 / psy_rd=1.05:0.00 / mixed_ref=1 / me_range=32 / chroma_me=1 / trellis=2 / 8x8dct=1 / cqm=0 / deadzone=21,11 / fast_pskip=0 / chroma_qp_offset=-2 / threads=36 / lookahead_threads=6 / sliced_threads=0 / nr=0 / decimate=0 / interlaced=0 / bluray_compat=0 / constrained_intra=0 / fgo=0 / bframes=8 / b_pyramid=2 / b_adapt=2 / b_bias=0 / direct=3 / weightb=1 / open_gop=0 / weightp=2 / keyint=240 / keyint_min=24 / scenecut=40 / intra_refresh=0 / rc=crf / mbtree=0 / crf=17.5000 / qcomp=0.70 / qpmin=0 / qpmax=69 / qpstep=4 / ip_ratio=1.20 / pb_ratio=1.20 / aq=4:0.80 / aq-sensitivity=10.00 / aq-factor=1.00:1.00:1.00 / aq2=0 / aq3=0
Язык : English
Default : Да
Forced : Нет
Аудио #1
Идентификатор : 2
Формат : DTS
Формат/Информация : Digital Theater Systems
Идентификатор кодека : A_DTS
Продолжительность : 1 ч. 38 м.
Вид битрейта : Постоянный
Битрейт : 755 Кбит/сек
Каналы : 6 каналов
Расположение каналов : Front: L C R, Side: L R, LFE
Частота : 48,0 КГц
Битовая глубина : 24 бит
Метод сжатия : С потерями
Размер потока : 534 Мбайт (4%)
Заголовок : DTS 5.1 / 768 kbps / MVO (Blu-ray EUR)
Язык : Russian
Default : Да
Forced : Нет
Аудио #2
Идентификатор : 3
Формат : DTS
Формат/Информация : Digital Theater Systems
Идентификатор кодека : A_DTS
Продолжительность : 1 ч. 38 м.
Вид битрейта : Постоянный
Битрейт : 1510 Кбит/сек
Каналы : 6 каналов
Расположение каналов : Front: L C R, Side: L R, LFE
Частота : 48,0 КГц
Битовая глубина : 24 бит
Метод сжатия : С потерями
Размер потока : 1,04 Гбайт (7%)
Заголовок : DTS 5.1 / 1536 kbps / AVO (А.Дольский)
Язык : Russian
Default : Нет
Forced : Нет
Аудио #3
Идентификатор : 4
Формат : DTS
Формат/Информация : Digital Theater Systems
Идентификатор кодека : A_DTS
Продолжительность : 1 ч. 38 м.
Вид битрейта : Постоянный
Битрейт : 1510 Кбит/сек
Каналы : 6 каналов
Расположение каналов : Front: L C R, Side: L R, LFE
Частота : 48,0 КГц
Битовая глубина : 24 бит
Метод сжатия : С потерями
Размер потока : 1,04 Гбайт (7%)
Заголовок : DTS 5.1 / 1536 kbps / Original
Язык : English
Default : Нет
Forced : Нет
Аудио #4
Идентификатор : 5
Формат : AC-3
Формат/Информация : Audio Coding 3
Расширение режима : CM (complete main)
Параметр Endianness формата : Big
Идентификатор кодека : A_AC3
Продолжительность : 1 ч. 38 м.
Вид битрейта : Постоянный
Битрейт : 448 Кбит/сек
Каналы : 6 каналов
Расположение каналов : Front: L C R, Side: L R, LFE
Частота : 48,0 КГц
Битовая глубина : 16 бит
Метод сжатия : С потерями
Размер потока : 317 Мбайт (2%)
Заголовок : AC3 5.1 / 448 kbps - Descriptive
Язык : English
Default : Нет
Forced : Нет
Текст #1
Идентификатор : 6
Формат : UTF-8
Идентификатор кодека : S_TEXT/UTF8
Идентификатор кодека/Информация : UTF-8 Plain Text
Язык : Russian
Default : Нет
Forced : Нет
Текст #2
Идентификатор : 7
Формат : UTF-8
Идентификатор кодека : S_TEXT/UTF8
Идентификатор кодека/Информация : UTF-8 Plain Text
Язык : Ukrainian
Default : Нет
Forced : Нет
Текст #3
Идентификатор : 8
Формат : UTF-8
Идентификатор кодека : S_TEXT/UTF8
Идентификатор кодека/Информация : UTF-8 Plain Text
Язык : English
Default : Нет
Forced : Нет
Текст #4
Идентификатор : 9
Формат : UTF-8
Идентификатор кодека : S_TEXT/UTF8
Идентификатор кодека/Информация : UTF-8 Plain Text
Заголовок : SDH
Язык : English
Default : Нет
Forced : Нет
Текст #5
Идентификатор : 10
Формат : UTF-8
Идентификатор кодека : S_TEXT/UTF8
Идентификатор кодека/Информация : UTF-8 Plain Text
Заголовок : SDH (COLORED)
Язык : English
Default : Нет
Forced : Нет
Меню
00:00:00.000 : en:00:00:00.000
00:03:48.603 : en:00:03:48.603
00:04:37.277 : en:00:04:37.277
00:07:26.863 : en:00:07:26.863
00:08:42.147 : en:00:08:42.147
00:13:28.558 : en:00:13:28.558
00:16:59.810 : en:00:16:59.810
00:19:24.955 : en:00:19:24.955
00:22:27.096 : en:00:22:27.096
00:26:50.067 : en:00:26:50.067
00:30:26.533 : en:00:30:26.533
00:34:43.290 : en:00:34:43.290
00:39:18.565 : en:00:39:18.565
00:41:47.505 : en:00:41:47.505
00:46:14.772 : en:00:46:14.772
00:49:42.730 : en:00:49:42.730
00:52:46.830 : en:00:52:46.830
00:54:50.496 : en:00:54:50.496
00:59:21.558 : en:00:59:21.558
01:02:43.051 : en:01:02:43.051
01:07:04.187 : en:01:07:04.187
01:08:38.239 : en:01:08:38.239
01:15:24.895 : en:01:15:24.895
01:18:14.773 : en:01:18:14.773
01:22:11.927 : en:01:22:11.927
01:26:22.511 : en:01:26:22.511
01:31:17.472 : en:01:31:17.472
01:34:38.214 : en:01:34:38.214
Скриншоты:


Время раздачи: 24/7 (до 10 скачавших)

[Цитировать]

Топик был перенесен из форума Новинки кинопроката (HD Video) в форум Зарубежное кино (HD Video)
Bootch



Показать сообщения:    

Текущее время: 06-Дек 03:56

Часовой пояс: UTC + 3


Вы не можете начинать темы
Вы не можете отвечать на сообщения
Вы не можете редактировать свои сообщения
Вы не можете удалять свои сообщения
Вы не можете голосовать в опросах
Вы не можете прикреплять файлы к сообщениям
Вы не можете скачивать файлы

!ВНИМАНИЕ!
Сайт не предоставляет электронные версии произведений, а занимается лишь коллекционированием и каталогизацией ссылок, присылаемых и публикуемых на форуме нашими читателями. Если вы являетесь правообладателем какого-либо представленного материала и не желаете, чтобы ссылка на него находилась в нашем каталоге, свяжитесь с нами, и мы незамедлительно удалим ее. Файлы для обмена на трекере предоставлены пользователями сайта, и администрация не несет ответственности за их содержание. Просьба не заливать файлы, защищенные авторскими правами, а также файлы нелегального содержания!