[ Сегодня идет свободное скачивание без начисления Download ]


Статистика раздачи
Нет
 
   
 
Top  
 
 
- -Форсаж 5 / Fast Five«Всё решает скорость, всё решает команда»
Год выпуска: 2011
Страна: США
Производство: Original Film / Proof
Жанр: боевик, триллер, драма, криминал
Режиссер: Джастин Лин
В ролях: Вин Дизель, Пол Уокер, Джордана Брюстер, Тайриз Гибсон, Лудакрис, Эльза Патаки, Галь Гадот, Тего Калдерон, Дон Омар, Мэтт Шульце
Перевод: Профессиональный (полное дублирование)
Субтитры: Английские, Хорватские, Чешские, Греческие, Венгерские, Польские, Португальские, Русские (на комментарии создателей, "картинку в картинке", форсированные), Словенские, Испанские, Тайские, Турецкие
Описание: Бывший полицейский Брайан О`Коннер вместе с бывалым лихачом Домиником Торетто совсем немного увлеклись жизнью вне закона. После того, как Брайан и Миа Торетто освободили Доминика, они не рискуют долго задерживаться на одном месте, так как являются желанной целью порядком недовольных копов. Качество: Blu-ray Disc
Продолжительность: 02:10:21
Контейнер: BDMV
Видео кодек: m2ts
Аудио кодек: DTS-HD Master Audio, DTS Audio, Dolby Digital Audio, DTS Express
Видео: 21510 kbps / 1920x1080 / 23,976 fps / 16:9 / High Profile 4.1
Аудио 1: DTS Audio Russian 768 kbps 5.1 / 48 kHz / 768 kbps / 24-bit
Аудио 2: DTS-HD Master Audio English 3987 kbps 5.1 / 48 kHz / 3987 kbps / 24-bit (DTS Core: 5.1 / 48 kHz / 1509 kbps / 24-bit)
Аудио 3: DTS Audio Czech 768 kbps 5.1 / 48 kHz / 768 kbps / 24-bit
Аудио 4: DTS Audio Hungarian 768 kbps 5.1 / 48 kHz / 768 kbps / 24-bit
Аудио 5: DTS Audio Portuguese 768 kbps 5.1 / 48 kHz / 768 kbps / 24-bit
Аудио 6: DTS Audio Spanish 768 kbps 5.1 / 48 kHz / 768 kbps / 24-bit
Аудио 7: Dolby Digital Audio Polish 448 kbps 5.1 / 48 kHz / 448 kbps / DN -4dB
Аудио 8: Dolby Digital Audio Thai 448 kbps 5.1 / 48 kHz / 448 kbps / DN -4dB
Аудио 9: Dolby Digital Audio Turkish 448 kbps 5.1 / 48 kHz / 448 kbps / DN -4dB
Аудио 10: Dolby Digital Audio English 192 kbps 2.0 / 48 kHz / 192 kbps / DN -4dB / Dolby Surround
Аудио 11: DTS Express English 192 kbps 2.0 / 48 kHz / 192 kbps / 24-bit

Дополнительно

- Удаленные сцены;
- Смешные моменты;
- Ограбление поезда;
- Герои снова вместе;
- Новые колеса;
- Путешествие Дома;
- Брайн О'Коннор: из копов в мошенники;
- Входите, федеральный агент Хоббс;
- На площадке с режиссером Джастином Лином;
- Как снималась погоня с сейфом;
- Тайриз ТВ;
- Аудиокомментарий с участием режиссера Джастина Лина

BDinfo

DISC INFO:
Disc Title: FAST_FIVE_G52
Disc Size: 49 498 624 529 bytes
Protection: AACS
BD-Java: Yes
BDInfo: 0.5.6
PLAYLIST REPORT:
Name: 00800.MPLS
Length: 2:10:21 (h:m:s)
Size: 34 386 677 760 bytes
Total Bitrate: 35,17 Mbps
VIDEO:
Codec Bitrate Deion
----- ------- -----------
MPEG-4 AVC Video 21510 kbps 1080p / 23,976 fps / 16:9 / High Profile 4.1
MPEG-4 AVC Video 1075 kbps 480p / 23,976 fps / 16:9 / High Profile 3.2
AUDIO:
Codec Language Bitrate Deion
----- -------- ------- -----------
DTS-HD Master Audio English 3987 kbps 5.1 / 48 kHz / 3987 kbps / 24-bit (DTS Core: 5.1 / 48 kHz / 1509 kbps / 24-bit)
DTS Audio Czech 768 kbps 5.1 / 48 kHz / 768 kbps / 24-bit
DTS Audio Hungarian 768 kbps 5.1 / 48 kHz / 768 kbps / 24-bit
DTS Audio Portuguese 768 kbps 5.1 / 48 kHz / 768 kbps / 24-bit
DTS Audio Russian 768 kbps 5.1 / 48 kHz / 768 kbps / 24-bit
DTS Audio Spanish 768 kbps 5.1 / 48 kHz / 768 kbps / 24-bit
Dolby Digital Audio Polish 448 kbps 5.1 / 48 kHz / 448 kbps / DN -4dB
Dolby Digital Audio Thai 448 kbps 5.1 / 48 kHz / 448 kbps / DN -4dB
Dolby Digital Audio Turkish 448 kbps 5.1 / 48 kHz / 448 kbps / DN -4dB
Dolby Digital Audio English 192 kbps 2.0 / 48 kHz / 192 kbps / DN -4dB / Dolby Surround
DTS Express English 192 kbps 2.0 / 48 kHz / 192 kbps / 24-bit
SUBTITLES:
Codec Language Bitrate Deion
----- -------- ------- -----------
Presentation Graphics English 29,012 kbps
Presentation Graphics English 2,474 kbps
Presentation Graphics English 72,071 kbps
Presentation Graphics English 27,546 kbps
Presentation Graphics Croatian 20,507 kbps
Presentation Graphics Czech 20,689 kbps
Presentation Graphics Czech 1,792 kbps
Presentation Graphics Greek 26,193 kbps
Presentation Graphics Greek 65,350 kbps
Presentation Graphics Greek 27,580 kbps
Presentation Graphics Hungarian 23,235 kbps
Presentation Graphics Hungarian 0,097 kbps
Presentation Graphics Polish 20,708 kbps
Presentation Graphics Polish 54,035 kbps
Presentation Graphics Polish 22,605 kbps
Presentation Graphics Portuguese 23,674 kbps
Presentation Graphics Portuguese 58,426 kbps
Presentation Graphics Portuguese 23,809 kbps
Presentation Graphics Portuguese 1,137 kbps
Presentation Graphics Romanian 25,155 kbps
Presentation Graphics Russian 64,032 kbps
Presentation Graphics Russian 24,492 kbps
Presentation Graphics Russian 0,231 kbps
Presentation Graphics Slovenian 17,125 kbps
Presentation Graphics Spanish 21,807 kbps
Presentation Graphics Spanish 59,285 kbps
Presentation Graphics Spanish 24,863 kbps
Presentation Graphics Spanish 1,798 kbps
Presentation Graphics Thai 19,566 kbps
Presentation Graphics Thai 0,186 kbps
Presentation Graphics Turkish 23,488 kbps
Presentation Graphics Turkish 2,065 kbps
FILES:
Name Time In Length Size Total Bitrate
---- ------- ------ ---- -------------
50201.M2TS 0:00:00.000 2:10:21.271 34 386 677 760 35 172
CHAPTERS:
Number Time In Length Avg Video Rate Max 1-Sec Rate Max 1-Sec Time Max 5-Sec Rate Max 5-Sec Time Max 10Sec Rate Max 10Sec Time Avg Frame Size Max Frame Size Max Frame Time
------ ------- ------ -------------- -------------- -------------- -------------- -------------- -------------- -------------- -------------- -------------- --------------
1 0:00:00.000 0:07:45.715 22 432 kbps 35 478 kbps 00:00:47.964 30 038 kbps 00:03:37.550 29 778 kbps 00:00:58.600 116 941 bytes 604 464 bytes 00:02:37.907
2 0:07:45.715 0:09:43.749 21 594 kbps 32 839 kbps 00:11:20.179 30 166 kbps 00:17:08.736 29 944 kbps 00:17:15.159 112 581 bytes 388 438 bytes 00:16:16.725
3 0:17:29.465 0:05:32.373 18 811 kbps 30 821 kbps 00:21:46.596 29 226 kbps 00:21:37.713 28 607 kbps 00:21:38.463 98 071 bytes 389 991 bytes 00:19:15.988
4 0:23:01.838 0:05:19.736 21 738 kbps 30 791 kbps 00:24:46.109 29 399 kbps 00:23:57.310 28 635 kbps 00:24:22.252 113 329 bytes 404 852 bytes 00:23:08.845
5 0:28:21.574 0:06:34.060 24 225 kbps 31 824 kbps 00:32:20.146 30 318 kbps 00:32:16.142 29 693 kbps 00:29:55.627 126 299 bytes 418 246 bytes 00:31:36.686
6 0:34:55.635 0:05:50.683 20 932 kbps 30 795 kbps 00:35:09.982 29 880 kbps 00:35:06.229 27 920 kbps 00:35:01.933 109 129 bytes 379 550 bytes 00:35:10.858
7 0:40:46.318 0:07:55.266 19 458 kbps 30 633 kbps 00:40:50.156 29 024 kbps 00:40:49.905 28 365 kbps 00:40:46.735 101 444 bytes 367 939 bytes 00:45:43.657
8 0:48:41.585 0:06:38.731 22 187 kbps 30 478 kbps 00:54:30.517 28 957 kbps 00:54:27.472 27 660 kbps 00:51:47.896 115 672 bytes 412 950 bytes 00:52:13.380
9 0:55:20.317 0:07:49.635 22 781 kbps 31 602 kbps 01:02:20.611 30 149 kbps 01:01:22.887 29 982 kbps 01:01:50.456 118 770 bytes 342 405 bytes 01:01:27.767
10 1:03:09.952 0:07:34.704 20 986 kbps 30 800 kbps 01:08:05.706 28 627 kbps 01:08:02.703 28 509 kbps 01:07:57.698 109 410 bytes 371 690 bytes 01:09:16.902
11 1:10:44.657 0:07:41.210 22 087 kbps 32 863 kbps 01:11:55.769 29 972 kbps 01:18:15.148 28 414 kbps 01:18:09.768 115 152 bytes 405 179 bytes 01:10:45.658
12 1:18:25.867 0:04:10.333 20 382 kbps 30 561 kbps 01:21:26.256 26 491 kbps 01:21:26.256 25 838 kbps 01:22:09.215 106 263 bytes 350 443 bytes 01:22:36.201
13 1:22:36.201 0:05:22.530 21 541 kbps 30 663 kbps 01:22:41.081 30 005 kbps 01:22:37.077 26 729 kbps 01:22:36.201 112 306 bytes 369 174 bytes 01:22:38.203
14 1:27:58.731 0:03:54.692 17 789 kbps 31 137 kbps 01:28:31.014 25 418 kbps 01:28:28.886 24 211 kbps 01:28:25.466 92 742 bytes 359 145 bytes 01:27:59.732
15 1:31:53.424 0:07:19.897 20 813 kbps 31 672 kbps 01:32:16.280 30 063 kbps 01:32:16.322 29 819 kbps 01:32:15.321 108 507 bytes 436 454 bytes 01:32:16.364
16 1:39:13.322 0:07:47.425 24 678 kbps 31 780 kbps 01:42:54.418 30 059 kbps 01:41:11.940 28 805 kbps 01:45:57.434 128 659 bytes 374 120 bytes 01:42:14.920
17 1:47:00.747 0:07:49.385 21 877 kbps 31 314 kbps 01:53:29.886 30 118 kbps 01:53:25.882 27 651 kbps 01:53:10.366 114 056 bytes 369 471 bytes 01:47:47.043
18 1:54:50.133 0:04:25.098 17 587 kbps 29 650 kbps 01:58:55.586 24 395 kbps 01:58:54.710 22 798 kbps 01:56:20.890 91 692 bytes 372 549 bytes 01:57:39.010
19 1:59:15.231 0:04:09.165 26 185 kbps 36 196 kbps 02:03:21.435 30 038 kbps 01:59:26.951 29 920 kbps 01:59:22.071 136 514 bytes 578 128 bytes 02:03:22.269
20 2:03:24.397 0:06:56.874 19 678 kbps 36 104 kbps 02:08:32.955 30 012 kbps 02:07:43.030 29 032 kbps 02:04:05.896 102 603 bytes 476 668 bytes 02:08:33.497
STREAM DIAGNOSTICS:
File PID Type Codec Language Seconds Bitrate Bytes Packets
---- --- ---- ----- -------- -------------- -------------- ------------- -----
50201.M2TS 4113 (0x1011) 0x1B AVC 7821,105 21 511 21 029 738 086 114 401 279
50201.M2TS 4352 (0x1100) 0x86 DTS-HD MA eng (English) 7821,105 3 987 3 898 041 020 22 391 014
50201.M2TS 4353 (0x1101) 0x82 DTS por (Portuguese) 7821,105 768 750 842 880 4 399 470
50201.M2TS 4354 (0x1102) 0x82 DTS ces (Czech) 7821,105 768 750 842 880 4 399 470
50201.M2TS 4355 (0x1103) 0x82 DTS hun (Hungarian) 7821,105 768 750 842 880 4 399 470
50201.M2TS 4356 (0x1104) 0x82 DTS spa (Spanish) 7821,105 768 750 842 880 4 399 470
50201.M2TS 4357 (0x1105) 0x81 AC3 pol (Polish) 7821,105 448 437 991 680 2 444 150
50201.M2TS 4358 (0x1106) 0x82 DTS rus (Russian) 7821,105 768 750 842 880 4 399 470
50201.M2TS 4359 (0x1107) 0x81 AC3 tha (Thai) 7821,105 448 437 991 680 2 444 150
50201.M2TS 4360 (0x1108) 0x81 AC3 tur (Turkish) 7821,105 448 437 991 680 2 444 150
50201.M2TS 4361 (0x1109) 0x81 AC3 eng (English) 7821,105 192 187 710 720 1 222 075
50201.M2TS 4608 (0x1200) 0x90 PGS eng (English) 7821,105 29 28 363 807 163 307
50201.M2TS 4609 (0x1201) 0x90 PGS por (Portuguese) 7821,105 24 23 145 372 133 603
50201.M2TS 4610 (0x1202) 0x90 PGS ces (Czech) 7821,105 21 20 226 473 115 955
50201.M2TS 4611 (0x1203) 0x90 PGS hun (Hungarian) 7821,105 23 22 715 979 131 816
50201.M2TS 4612 (0x1204) 0x90 PGS spa (Spanish) 7821,105 22 21 319 428 124 294
50201.M2TS 4613 (0x1205) 0x90 PGS pol (Polish) 7821,105 21 20 245 732 118 373
50201.M2TS 4614 (0x1206) 0x90 PGS tha (Thai) 7821,105 20 19 128 778 112 509
50201.M2TS 4615 (0x1207) 0x90 PGS tur (Turkish) 7821,105 23 22 963 489 133 441
50201.M2TS 4616 (0x1208) 0x90 PGS hrv (Croatian) 7821,105 21 20 048 994 117 207
50201.M2TS 4617 (0x1209) 0x90 PGS ell (Greek) 7821,105 26 25 608 181 147 257
50201.M2TS 4618 (0x120A) 0x90 PGS ron (Romanian) 7821,105 25 24 592 751 142 094
50201.M2TS 4619 (0x120B) 0x90 PGS slv (Slovenian) 7821,105 17 16 742 841 99 176
50201.M2TS 4620 (0x120C) 0x90 PGS eng (English) 7821,105 72 70 461 261 398 156
50201.M2TS 4621 (0x120D) 0x90 PGS por (Portuguese) 7821,105 58 57 120 886 323 125
50201.M2TS 4622 (0x120E) 0x90 PGS spa (Spanish) 7821,105 59 57 960 935 327 884
50201.M2TS 4623 (0x120F) 0x90 PGS pol (Polish) 7821,105 54 52 827 927 299 927
50201.M2TS 4624 (0x1210) 0x90 PGS rus (Russian) 7821,105 64 62 601 038 352 988
50201.M2TS 4625 (0x1211) 0x90 PGS ell (Greek) 7821,105 65 63 889 961 359 979
50201.M2TS 4626 (0x1212) 0x90 PGS eng (English) 7821,105 28 26 930 629 152 199
50201.M2TS 4627 (0x1213) 0x90 PGS por (Portuguese) 7821,105 24 23 277 250 131 901
50201.M2TS 4628 (0x1214) 0x90 PGS spa (Spanish) 7821,105 25 24 307 828 137 432
50201.M2TS 4629 (0x1215) 0x90 PGS pol (Polish) 7821,105 23 22 100 413 125 472
50201.M2TS 4630 (0x1216) 0x90 PGS rus (Russian) 7821,105 24 23 944 736 135 618
50201.M2TS 4631 (0x1217) 0x90 PGS ell (Greek) 7821,105 28 26 963 589 152 011
50201.M2TS 4632 (0x1218) 0x90 PGS eng (English) 7821,105 2 2 418 691 13 973
50201.M2TS 4633 (0x1219) 0x90 PGS por (Portuguese) 7821,105 1 1 112 058 6 359
50201.M2TS 4634 (0x121A) 0x90 PGS ces (Czech) 7821,105 2 1 752 080 10 155
50201.M2TS 4635 (0x121B) 0x90 PGS hun (Hungarian) 7821,105 0 94 444 554
50201.M2TS 4636 (0x121C) 0x90 PGS spa (Spanish) 7821,105 2 1 758 262 10 236
50201.M2TS 4637 (0x121D) 0x90 PGS rus (Russian) 7821,105 0 226 277 1 297
50201.M2TS 4638 (0x121E) 0x90 PGS tha (Thai) 7821,105 0 182 029 1 050
50201.M2TS 4639 (0x121F) 0x90 PGS tur (Turkish) 7821,105 2 2 019 183 11 813
50201.M2TS 6656 (0x1A00) 0xA2 DTS Express eng (English) 7821,105 192 187 711 488 1 099 872
50201.M2TS 6912 (0x1B00) 0x1B AVC 7821,105 1 075 1 051 370 734 5 816 836
[/code]
QUICK SUMMARY:
Disc Title: FAST_FIVE_G52
Disc Size: 49 498 624 529 bytes
Protection: AACS
BD-Java: Yes
Playlist: 00800.MPLS
Size: 34 386 677 760 bytes
Length: 2:10:21
Total Bitrate: 35,17 Mbps
Video: MPEG-4 AVC Video / 21510 kbps / 1080p / 23,976 fps / 16:9 / High Profile 4.1
Video: MPEG-4 AVC Video / 1075 kbps / 480p / 23,976 fps / 16:9 / High Profile 3.2
Audio: English / DTS-HD Master Audio / 5.1 / 48 kHz / 3987 kbps / 24-bit (DTS Core: 5.1 / 48 kHz / 1509 kbps / 24-bit)
Audio: Czech / DTS Audio / 5.1 / 48 kHz / 768 kbps / 24-bit
Audio: Hungarian / DTS Audio / 5.1 / 48 kHz / 768 kbps / 24-bit
Audio: Portuguese / DTS Audio / 5.1 / 48 kHz / 768 kbps / 24-bit
Audio: Russian / DTS Audio / 5.1 / 48 kHz / 768 kbps / 24-bit
Audio: Spanish / DTS Audio / 5.1 / 48 kHz / 768 kbps / 24-bit
Audio: Polish / Dolby Digital Audio / 5.1 / 48 kHz / 448 kbps / DN -4dB
Audio: Thai / Dolby Digital Audio / 5.1 / 48 kHz / 448 kbps / DN -4dB
Audio: Turkish / Dolby Digital Audio / 5.1 / 48 kHz / 448 kbps / DN -4dB
Audio: English / Dolby Digital Audio / 2.0 / 48 kHz / 192 kbps / DN -4dB / Dolby Surround
Audio: English / DTS Express / 2.0 / 48 kHz / 192 kbps / 24-bit
Subtitle: English / 29,012 kbps
Subtitle: English / 2,474 kbps
Subtitle: English / 72,071 kbps
Subtitle: English / 27,546 kbps
Subtitle: Croatian / 20,507 kbps
Subtitle: Czech / 20,689 kbps
Subtitle: Czech / 1,792 kbps
Subtitle: Greek / 26,193 kbps
Subtitle: Greek / 65,350 kbps
Subtitle: Greek / 27,580 kbps
Subtitle: Hungarian / 23,235 kbps
Subtitle: Hungarian / 0,097 kbps
Subtitle: Polish / 20,708 kbps
Subtitle: Polish / 54,035 kbps
Subtitle: Polish / 22,605 kbps
Subtitle: Portuguese / 23,674 kbps
Subtitle: Portuguese / 58,426 kbps
Subtitle: Portuguese / 23,809 kbps
Subtitle: Portuguese / 1,137 kbps
Subtitle: Romanian / 25,155 kbps
Subtitle: Russian / 64,032 kbps
Subtitle: Russian / 24,492 kbps
Subtitle: Russian / 0,231 kbps
Subtitle: Slovenian / 17,125 kbps
Subtitle: Spanish / 21,807 kbps
Subtitle: Spanish / 59,285 kbps
Subtitle: Spanish / 24,863 kbps
Subtitle: Spanish / 1,798 kbps
Subtitle: Thai / 19,566 kbps
Subtitle: Thai / 0,186 kbps
Subtitle: Turkish / 23,488 kbps
Subtitle: Turkish / 2,065 kbps
-

Скриншоты

= Скриншоты фильма =-
-Форсаж 4 / Fast Five«Новые тачки. Старая команда.» Год выпуска: 2009
Страна: США
Производство: Neal H. Moritz Productions, One Race Productions, Original Film, Relativity Media, Universal Pictures
Жанр: боевик, триллер, драма, криминал
Режиссер: Джастин Лин / Justin Lin
В ролях: Вин Дизель, Пол Уокер, Джордана Брюстер, Мишель Родригес, Джон Ортиз, Лас Алонсо, Гал Гадот, Джек Конли, Ши Уигхэм, Лиза Лапира
Перевод: Профессиональный (полное дублирование)
Субтитры: Английские, болгарские, хорватские, чешские, греческие, иврит, венгерские, исландские, польские, португальские, румынские, испанские, тайские, турецкие.
Описание: Когда кривая дорожка заставляет скрывающегося от правосудия Дома Торетто вернуться в Лос-Анджелес, вражда с агентом Брайаном О’Коннером вспыхивает с новой силой. Но у парочки обнаруживается общий противник, и Дому с Брайаном приходится заключить перемирие в надежде одержать над ним победу. Грабя конвои, роя подкопы и пересекая границы, они приходят к идеальной форме отмщения — педали газа, вдавленной до упора. Качество: Blu-ray Disc
Продолжительность: 01:46:45
Контейнер: BDMV
Видео кодек: m2ts
Аудио кодек: DTS-HD Master Audio, DTS Audio, Dolby Digital Audio
Видео: 1920x1080/VC-1/24244 kbps/23,976 fps/1080p/16:9 / High Profile 4.1
Аудио 1: DTS Audio Russian 768 kbps 5.1 / 48 kHz / 768 kbps / 24-bit
Аудио 2: DTS-HD Master Audio English 4173 kbps 5.1 / 48 kHz / 4173 kbps / 24-bit (DTS Core: 5.1 / 48 kHz / 1509 kbps / 24-bit)
Аудио 3: DTS Audio Czech 768 kbps 5.1 / 48 kHz / 768 kbps / 24-bit
Аудио 4: DTS Audio Hungarian 768 kbps 5.1 / 48 kHz / 768 kbps / 24-bit
Аудио 5: DTS Audio Portuguese 768 kbps 5.1 / 48 kHz / 768 kbps / 24-bit
Аудио 6: DTS Audio Spanish 768 kbps 5.1 / 48 kHz / 768 kbps / 24-bit
Аудио 7: DTS Audio Polish 768 kbps 5.1 / 48 kHz / 768 kbps / 24-bit
Аудио 8: DTS Audio Thai 768 kbps 5.1 / 48 kHz / 768 kbps / 24-bit
Аудио 9: DTS Audio Turkish 768 kbps 5.1 / 48 kHz / 768 kbps / 24-bit
Аудио 10: Dolby Digital Audio English 192 kbps 2.0 / 48 kHz / 192 kbps / DN -4dB / Dolby Surround

Дополнительно

Смешные моменты
Бандюганы
Что скрывается под капотом: мощные тачки
Банда снова объединяется
Курсы вождения для Вина Дизеля
О съемках большого угона
Гонки и погони
Высокий октан в действии: автомобильные трюки
К югу от границы: о съемках в Мексике
Видеоклип «Blanco» в исполнении рэпера Питбуля с участием Фарелла Уильямса
Ролики:
o The Fast and the Furious
o 2 Fast 2 Furious
o The Fast and the Furious: Tokyo Drift
o Fast & Furious
Комментарии режиссера Джастина Лина Theatrical trailer

BDinfo

DISC INFO:
Disc Title: Fast & Furious 4
Disc Size: 49 472 939 784 bytes
Protection: AACS
BD-Java: Yes
BDInfo: 0.5.6
PLAYLIST REPORT:
Name: 00000.MPLS
Length: 1:46:45 (h:m:s)
Size: 30 191 443 968 bytes
Total Bitrate: 37,71 Mbps
VIDEO:
Codec Bitrate Deion
----- ------- -----------
VC-1 Video 24244 kbps 1080p / 23,976 fps / 16:9 / Advanced Profile 3
AUDIO:
Codec Language Bitrate Deion
----- -------- ------- -----------
DTS-HD Master Audio English 4173 kbps 5.1 / 48 kHz / 4173 kbps / 24-bit (DTS Core: 5.1 / 48 kHz / 1509 kbps / 24-bit)
DTS Audio Czech 768 kbps 5.1 / 48 kHz / 768 kbps / 24-bit
DTS Audio Hungarian 768 kbps 5.1 / 48 kHz / 768 kbps / 24-bit
DTS Audio Polish 768 kbps 5.1 / 48 kHz / 768 kbps / 24-bit
DTS Audio Portuguese 768 kbps 5.1 / 48 kHz / 768 kbps / 24-bit
DTS Audio Russian 768 kbps 5.1 / 48 kHz / 768 kbps / 24-bit
DTS Audio Spanish 768 kbps 5.1 / 48 kHz / 768 kbps / 24-bit
DTS Audio Thai 768 kbps 5.1 / 48 kHz / 768 kbps / 24-bit
DTS Audio Turkish 768 kbps 5.1 / 48 kHz / 768 kbps / 24-bit
Dolby Digital Audio English 192 kbps 2.0 / 48 kHz / 192 kbps / DN -4dB / Dolby Surround
SUBTITLES:
Codec Language Bitrate Deion
----- -------- ------- -----------
Presentation Graphics English 24,865 kbps
Presentation Graphics Bulgarian 17,830 kbps
Presentation Graphics Croatian 20,226 kbps
Presentation Graphics Czech 17,975 kbps
Presentation Graphics Czech 0,851 kbps
Presentation Graphics Greek 20,090 kbps
Presentation Graphics Greek 56,708 kbps
Presentation Graphics Hebrew 13,852 kbps
Presentation Graphics Hungarian 16,554 kbps
Presentation Graphics Hungarian 0,873 kbps
Presentation Graphics Icelandic 21,008 kbps
Presentation Graphics Polish 18,616 kbps
Presentation Graphics Polish 45,303 kbps
Presentation Graphics Portuguese 18,520 kbps
Presentation Graphics Portuguese 46,183 kbps
Presentation Graphics Portuguese 0,518 kbps
Presentation Graphics Romanian 18,136 kbps
Presentation Graphics Russian 55,554 kbps
Presentation Graphics Russian 1,244 kbps
Presentation Graphics Spanish 18,014 kbps
Presentation Graphics Spanish 48,487 kbps
Presentation Graphics Spanish 0,338 kbps
Presentation Graphics Thai 14,715 kbps
Presentation Graphics Thai 0,453 kbps
Presentation Graphics Turkish 22,031 kbps
Presentation Graphics Turkish 1,137 kbps
FILES:
Name Time In Length Size Total Bitrate
---- ------- ------ ---- -------------
00009.M2TS 0:00:00.000 1:39:25.000 28 705 861 632 38 499
00249.M2TS 1:39:25.000 0:07:20.398 1 485 582 336 26 986
-

Скриншоты

= Скриншоты фильма =-[
= Скриншоты меню =-
-Тройной форсаж: Токийский Дрифт / The Fast and the Furious: Tokyo Drift«На улицах Токио, слово «скорость» не нуждается в переводе.»
Год выпуска: 2006
Страна: США, Германия
Производство: Universal pictures
Жанр: боевик, триллер, драма, криминал
Режиссер: Джастин Лин / Justin Lin
В ролях: Лукас Блэк, Бау Вау, Брайан Ти, Санг Кенг, Брэндон Брендел, Дэниэл Буко, Дэвид Томас, Эмбер Стивенс, Ашика Гонья, Кристиан Салазар, Kevin Caira, Трей Санфорд, Дэнни Рэй МакДональд II, Никки Гриффин, Винсент Лареска, Джои Крамптон, Линда Бойд, Брайан Гудман, Йоко Маки, Натали Келли, Рай Шибата
Перевод: Профессиональный (полное дублирование)
Субтитры: Английские, болгарские, хорватские, чешские, греческие, иврит, венгерские, исландские, польские, португальские, румынские, испанские, тайские, турецкие.
Описание: Шон Босуэлл — одинокий парень, который хочет казаться профи уличных гонок. Он бесшабашно гоняется по улицам города, пытаясь убежать от жизненных невзгод и наживая себе врагов среди местных властей. Когда Шону грозит тюрьма, его от греха подальше отсылают к отцу — профессиональному военному, который служит на военной базе в Японии.
В незнакомой стране, живущей по своим законам, Шон чувствует себя еще большим изгоем. Однако вскоре его американский приятель Твинки знакомит его с миром подпольного дрифт-рейсинга. Раньше Шон просто тупо гонялся по улицам, а здесь перед ним открылся целый мир своеобразного искусства из металла и резины, дороги которого оказались невообразимо круты на поворотах… Качество: Blu-ray Disc
Продолжительность: 01:44:14
Контейнер: BDMV
Видео кодек: MPEG-4 AVC Video
Аудио кодек: DTS-HD Master Audio, DTS Express, Dolby Digital Audio
Видео: 21426 kbps / 1920x1080 / 23,976 fps / 16:9 / High Profile 4.1
Аудио 1: Dolby Digital Audio Russian 448 kbps 5.1 / 48 kHz / 448 kbps / DN -4dB
Аудио 2: DTS-HD Master Audio English 4458 kbps 5.1 / 48 kHz / 4458 kbps / 24-bit (DTS Core: 5.1 / 48 kHz / 1509 kbps / 24-bit)
Аудио 3: Dolby Digital Audio Czech 448 kbps 5.1 / 48 kHz / 448 kbps / DN -4dB
Аудио 4: Dolby Digital Audio Hungarian 448 kbps 5.1 / 48 kHz / 448 kbps / DN -4dB
Аудио 5: Dolby Digital Audio Portuguese 448 kbps 5.1 / 48 kHz / 448 kbps / DN -4dB
Аудио 6: Dolby Digital Audio Spanish 448 kbps 5.1 / 48 kHz / 448 kbps / DN -4dB
Аудио 7: Dolby Digital Audio Polish 448 kbps 5.1 / 48 kHz / 448 kbps / DN -4dB
Аудио 8: Dolby Digital Audio Thai 448 kbps 5.1 / 48 kHz / 448 kbps / DN -4dB
Аудио 9: Dolby Digital Audio English 192 kbps 2.0 / 48 kHz / 192 kbps / DN -4dB / Dolby Surround
Аудио 10: DTS Express English 192 kbps 2.0 / 48 kHz / 192 kbps / 24-bit

Дополнительно

Удаленные сцены
Школа дрифта
Съемки актерского состава
Большая авария: последняя гонка HAN
Готов к дрифту
Добро пожаловать в мир дрифта
Настоящий король дрифта
Так делают японцы
Видеоклипы
Комментарии режиссера
Коробка передач
Создание франшизы "Форсаж"
Безумный дрифт
U-Control

BDinfo

DISC INFO:
Disc Size: 44,478,252,597 bytes
Protection: AACS
BD-Java: Yes
BDInfo: 0.5.3
PLAYLIST REPORT:
Name: 00000.MPLS
Length: 1:44:14 (h:m:s)
Size: 27,630,077,952 bytes
Total Bitrate: 35,34 Mbps
VIDEO:
Codec Bitrate Deion
----- ------- -----------
MPEG-4 AVC Video 21426 kbps 1080p / 23,976 fps / 16:9 / High Profile 4.1
MPEG-4 AVC Video 2009 kbps 480p / 23,976 fps / 16:9 / High Profile 3.2
MPEG-4 AVC Video 395 kbps 480p / 23,976 fps / 16:9 / High Profile 3.2
MPEG-4 AVC Video 426 kbps 480p / 23,976 fps / 16:9 / High Profile 3.2
MPEG-4 AVC Video 257 kbps 480p / 23,976 fps / 16:9 / High Profile 3.2
AUDIO:
Codec Language Bitrate Deion
----- -------- ------- -----------
DTS-HD Master Audio English 4458 kbps 5.1 / 48 kHz / 4458 kbps / 24-bit (DTS Core: 5.1 / 48 kHz / 1509 kbps / 24-bit)
Dolby Digital Audio Czech 448 kbps 5.1 / 48 kHz / 448 kbps / DN -4dB
Dolby Digital Audio Hungarian 448 kbps 5.1 / 48 kHz / 448 kbps / DN -4dB
Dolby Digital Audio Polish 448 kbps 5.1 / 48 kHz / 448 kbps / DN -4dB
Dolby Digital Audio Portuguese 448 kbps 5.1 / 48 kHz / 448 kbps / DN -4dB
Dolby Digital Audio Russian 448 kbps 5.1 / 48 kHz / 448 kbps / DN -4dB
Dolby Digital Audio Spanish 448 kbps 5.1 / 48 kHz / 448 kbps / DN -4dB
Dolby Digital Audio Thai 448 kbps 5.1 / 48 kHz / 448 kbps / DN -4dB
Dolby Digital Audio English 192 kbps 2.0 / 48 kHz / 192 kbps / DN -4dB / Dolby Surround
DTS Express English 192 kbps 2.0 / 48 kHz / 192 kbps / 24-bit
SUBTITLES:
Codec Language Bitrate Deion
----- -------- ------- -----------
Presentation Graphics English 17,667 kbps
Presentation Graphics English 0,916 kbps
Presentation Graphics Bulgarian 14,106 kbps
Presentation Graphics Croatian 13,237 kbps
Presentation Graphics Czech 13,869 kbps
Presentation Graphics Czech 0,884 kbps
Presentation Graphics Greek 14,867 kbps
Presentation Graphics Greek 63,893 kbps
Presentation Graphics Greek 64,356 kbps
Presentation Graphics Hebrew 11,385 kbps
Presentation Graphics Hungarian 13,353 kbps
Presentation Graphics Hungarian 0,861 kbps
Presentation Graphics Icelandic 16,064 kbps
Presentation Graphics Polish 14,705 kbps
Presentation Graphics Polish 53,002 kbps
Presentation Graphics Polish 62,663 kbps
Presentation Graphics Portuguese 15,318 kbps
Presentation Graphics Portuguese 60,436 kbps
Presentation Graphics Portuguese 57,868 kbps
Presentation Graphics Portuguese 1,239 kbps
Presentation Graphics Romanian 14,585 kbps
Presentation Graphics Russian 65,775 kbps
Presentation Graphics Russian 65,303 kbps
Presentation Graphics Russian 0,140 kbps
Presentation Graphics Spanish 13,911 kbps
Presentation Graphics Spanish 56,567 kbps
Presentation Graphics Spanish 54,462 kbps
Presentation Graphics Spanish 1,044 kbps
Presentation Graphics Thai 11,365 kbps
Presentation Graphics Thai 0,059 kbps
Presentation Graphics Turkish 16,691 kbps
-

Скриншоты

= Скриншоты фильма =-
= Скриншоты меню =-
- Двойной форсаж / 2 Fast 2 Furious«Какую скорость ты выдержишь?»
Год выпуска: 2003
Страна: США, Германия
Производство: Universal pictures
Жанр: боевик, триллер, драма, криминал
Режиссер: Джон Синглтон / John Singleton
В ролях: Пол Уокер, Тайриз Гибсон, Ева Мендез, Коул Хаузер, Лудакрис, Том Бэрри, Джеймс Ремар, Девон Аоки, Амори Ноласко, Майкл Или, Джин Онг, Эдвард Финлэй, Марк Бун Джуниор, Мэтт Галлини, Эрик Этебари, Джонни С., Трой Браун, Кори Майкл Юбанкс, Трой Робинсон
Перевод: Профессиональный (полное дублирование)
Субтитры: Английские, болгарские, хорватские, чешские, греческие, иврит, венгерские, исландские, польские, португальские, румынские, испанские, тайские, турецкие.
Описание: Бывший полицейский Брайан О`Коннер вместе с напарником Романом Пиарсом собираются перевезти крупную сумму "грязных" денег известного мафиози Картера Верона в качестве его подручных. Но на самом деле эта работа является только прикрытием для Брайана, который вместе с тайным агентом Моникой Клемент должны уличить изворотливого преступника… Качество: Blu-ray Disc
Продолжительность: 01:46:50
Контейнер: BDMV
Видео кодек: VC-1
Аудио кодек: DTS-HD Master Audio, DTS Express, Dolby Digital Audio
Видео: 1920x1080 / VC-1 / 23624 kbps / 23,976 fps / 1080p / 16:9 / Advanced Profile 3
Аудио 1: DTS Audio Russian 768 kbps 5.1 / 48 kHz / 768 kbps / 24-bit
Аудио 2: DTS-HD Master Audio English 4559 kbps 5.1 / 48 kHz / 4559 kbps / 24-bit (DTS Core: 5.1 / 48 kHz / 1509 kbps / 24-bit)
Аудио 3: DTS Audio Czech 768 kbps 5.1 / 48 kHz / 768 kbps / 24-bit
Аудио 4: DTS Audio Hungarian 768 kbps 5.1 / 48 kHz / 768 kbps / 24-bit
Аудио 5: DTS Audio Portuguese 768 kbps 5.1 / 48 kHz / 768 kbps / 24-bit
Аудио 6: DTS Audio Spanish 768 kbps 5.1 / 48 kHz / 768 kbps / 24-bit
Аудио 7: DTS Audio Polish 768 kbps 5.1 / 48 kHz / 768 kbps / 24-bit
Аудио 8: DTS Audio Thai 768 kbps 5.1 / 48 kHz / 768 kbps / 24-bit
Аудио 9: Dolby Digital Audio English 192 kbps 2.0 / 48 kHz / 192 kbps / DN -4dB / Dolby Surround
Аудио 10: DTS Express English 192 kbps 2.0 / 48 kHz / 192 kbps / 24-bit

Дополнительно

Турбовступление к фильму
Удаленные сцены
Неудачные дубли
На съемках
Автошкола
Снаряжение классной импортной машины
Супер сложные трюки
Музыкальное сопровождение с Ludacris
Актерский состав
Машины
Комментарии режиссера
Коробка передач
Эксклюзивные опции: Женщины на скорости; Влияние Голливуда; U-Control

BDinfo

DISC INFO:
Disc Title: 2 Fast 2 Furious
Disc Size: 38 980 922 848 bytes
Protection: AACS
BD-Java: Yes
BDInfo: 0.5.6
PLAYLIST REPORT:
Name: 00000.MPLS
Length: 1:47:35 (h:m:s)
Size: 30 738 683 904 bytes
Total Bitrate: 38,09 Mbps
VIDEO:
Codec Bitrate Deion
----- ------- -----------
VC-1 Video 23624 kbps 1080p / 23,976 fps / 16:9 / Advanced Profile 3
VC-1 Video 854 kbps 480p / 23,976 fps / 4:3 / Advanced Profile 2
VC-1 Video 85 kbps 480p / 23,976 fps / 16:9 / Advanced Profile 2
AUDIO:
Codec Language Bitrate Deion
----- -------- ------- -----------
DTS-HD Master Audio English 4559 kbps 5.1 / 48 kHz / 4559 kbps / 24-bit (DTS Core: 5.1 / 48 kHz / 1509 kbps / 24-bit)
DTS Audio Czech 768 kbps 5.1 / 48 kHz / 768 kbps / 24-bit
DTS Audio Hungarian 768 kbps 5.1 / 48 kHz / 768 kbps / 24-bit
DTS Audio Polish 768 kbps 5.1 / 48 kHz / 768 kbps / 24-bit
DTS Audio Portuguese 768 kbps 5.1 / 48 kHz / 768 kbps / 24-bit
DTS Audio Russian 768 kbps 5.1 / 48 kHz / 768 kbps / 24-bit
DTS Audio Spanish 768 kbps 5.1 / 48 kHz / 768 kbps / 24-bit
DTS Audio Thai 768 kbps 5.1 / 48 kHz / 768 kbps / 24-bit
Dolby Digital Audio English 192 kbps 2.0 / 48 kHz / 192 kbps / DN -4dB / Dolby Surround
DTS Express English 192 kbps 2.0 / 48 kHz / 192 kbps / 24-bit
SUBTITLES:
Codec Language Bitrate Deion
----- -------- ------- -----------
Presentation Graphics English 33,787 kbps
Presentation Graphics English 8,056 kbps
Presentation Graphics Bulgarian 25,034 kbps
Presentation Graphics Croatian 18,867 kbps
Presentation Graphics Czech 22,472 kbps
Presentation Graphics Czech 0,155 kbps
Presentation Graphics Greek 25,833 kbps
Presentation Graphics Greek 58,136 kbps
Presentation Graphics Greek 21,487 kbps
Presentation Graphics Hebrew 17,517 kbps
Presentation Graphics Hungarian 21,577 kbps
Presentation Graphics Hungarian 0,112 kbps
Presentation Graphics Icelandic 26,462 kbps
Presentation Graphics Polish 22,889 kbps
Presentation Graphics Polish 55,183 kbps
Presentation Graphics Polish 20,839 kbps
Presentation Graphics Portuguese 24,543 kbps
Presentation Graphics Portuguese 56,050 kbps
Presentation Graphics Portuguese 19,639 kbps
Presentation Graphics Portuguese 0,157 kbps
Presentation Graphics Romanian 25,321 kbps
Presentation Graphics Russian 62,683 kbps
Presentation Graphics Russian 23,020 kbps
Presentation Graphics Russian 0,237 kbps
Presentation Graphics Spanish 26,812 kbps
Presentation Graphics Spanish 58,333 kbps
Presentation Graphics Spanish 21,485 kbps
Presentation Graphics Spanish 0,178 kbps
Presentation Graphics Thai 21,290 kbps
Presentation Graphics Thai 0,117 kbps
Presentation Graphics Turkish 26,544 kbps
FILES:
Name Time In Length Size Total Bitrate
---- ------- ------ ---- -------------
00009.M2TS 0:00:00.000 1:47:35.866 30 738 683 904 38 091
-

Скриншоты

= Скриншоты фильма =-
= Скриншоты меню =-
- Форсаж / The Fast and the Furious«Live life 1/4 mile at a time»
Год выпуска: 2001
Страна: США, Германия
Производство: Universal pictures
Жанр: боевик, триллер, драма, криминал
Режиссер: Роб Коэн / Rob Cohen
В ролях: Пол Уокер, Вин Дизель, Мишель Родригез, Джордана Брюстер, Рик Йун, Чад Линдберг, Джонни Стронг, Мэтт Шульц, Тед Ливайн, Ja Rule, Вито Руджинис, Том Бэрри, Стэнтон Рутледж, Р.Дж. Де Вера, Бо Холден, Регги Ли, Дэвид Дуглас, Питер Нэви Туясосопо, Нил Х. Мориц
Перевод: Профессиональный (многоголосый закадровый)
Субтитры: Английские, болгарские, хорватские, чешские, греческие, иврит, венгерские, исландские, польские, португальские, румынские, испанские, тайские, турецкие.
Описание: Его зовут Брайан, и он — фанатик турбин и нитроускорителей. Его цель — быть принятым в автобанду легендарного Доминика Торетто, чемпиона опасных и незаконных уличных гонок. Но это лишь часть правды… Брайан также полицейский, имеющий задание войти в доверие к Торетто, подозреваемому в причастности к дерзким грабежам трейлеров, совершенным прямо "с колес".
Но чем больше доверяет нахальному новичку харизматичный Доминик, тем больше проникается герой идеалами "ангелов дорог". И тем меньше ему хочется выполнять свою миссию. И вот, наступает момент, когда Брайану придется выбирать между дружбой и долгом. И выбирать на скорости в 200 километров в час… Качество: Blu-ray Disc
Продолжительность: 01:46:50
Контейнер: BDMV
Видео кодек: VC-1
Аудио кодек: DTS-HD Master Audio, DTS Express, Dolby Digital Audio
Видео: 1920x1080 / VC-1 / 24098 kbps / 23,976 fps / 1080p / 16:9 / Advanced Profile 3
Аудио 1: DTS Audio Russian 768 kbps 5.1 / 48 kHz / 768 kbps / 24-bit
Аудио 2: DTS-HD Master Audio English 4592 kbps 5.1 / 48 kHz / 4592 kbps / 24-bit (DTS Core: 5.1 / 48 kHz / 1509 kbps / 24-bit)
Аудио 3: DTS Audio Czech 768 kbps 5.1 / 48 kHz / 768 kbps / 24-bit
Аудио 4: DTS Audio Hungarian 768 kbps 5.1 / 48 kHz / 768 kbps / 24-bit
Аудио 5: DTS Audio Portuguese 768 kbps 5.1 / 48 kHz / 768 kbps / 24-bit
Аудио 6: DTS Audio Spanish 768 kbps 5.1 / 48 kHz / 768 kbps / 24-bit
Аудио 7: DTS Audio Polish 768 kbps 5.1 / 48 kHz / 768 kbps / 24-bit
Аудио 8: DTS Audio Thai 768 kbps 5.1 / 48 kHz / 768 kbps / 24-bit
Аудио 9: Dolby Digital Audio English 192 kbps 2.0 / 48 kHz / 192 kbps / DN -4dB / Dolby Surround
Аудио 10: DTS Express English 192 kbps 2.0 / 48 kHz / 192 kbps / 24-bit

Дополнительно

Удаленные сцены
Уличные гонки
Публичное заявление Пола Уокера
Создание фильма
Суперскорости
Создание новороченного автомобиля
Взрывное начало фильма "Двойной форсаж"
Многоракурсная съемка
Короткометражная версия фильма "Форсаж"
Видео монтаж
Архивные материалы
Краткий анонс фильма
Видеоклипы
Трейлер
Комментарии режиссера
Эксклюзивные опции: Заряд Доминика; Четверть мили в секунду; U-Control

BDinfo


DISC INFO:
Disc Title: The Fast and the Furious
Disc Size: 41 132 715 840 bytes
Protection: AACS
BD-Java: Yes
BDInfo: 0.5.6
PLAYLIST REPORT:
Name: 00000.MPLS
Length: 1:46:50 (h:m:s)
Size: 32 019 185 664 bytes
Total Bitrate: 39,96 Mbps
VIDEO:
Codec Bitrate Deion
----- ------- -----------
VC-1 Video 24098 kbps 1080p / 23,976 fps / 16:9 / Advanced Profile 3
VC-1 Video 2001 kbps 480p / 23,976 fps / 4:3 / Advanced Profile 2
VC-1 Video 84 kbps 480p / 23,976 fps / 16:9 / Advanced Profile 2
AUDIO:
Codec Language Bitrate Deion
----- -------- ------- -----------
DTS-HD Master Audio English 4592 kbps 5.1 / 48 kHz / 4592 kbps / 24-bit (DTS Core: 5.1 / 48 kHz / 1509 kbps / 24-bit)
DTS Audio Czech 768 kbps 5.1 / 48 kHz / 768 kbps / 24-bit
DTS Audio Hungarian 768 kbps 5.1 / 48 kHz / 768 kbps / 24-bit
DTS Audio Polish 768 kbps 5.1 / 48 kHz / 768 kbps / 24-bit
DTS Audio Portuguese 768 kbps 5.1 / 48 kHz / 768 kbps / 24-bit
DTS Audio Russian 768 kbps 5.1 / 48 kHz / 768 kbps / 24-bit
DTS Audio Spanish 768 kbps 5.1 / 48 kHz / 768 kbps / 24-bit
DTS Audio Thai 768 kbps 5.1 / 48 kHz / 768 kbps / 24-bit
Dolby Digital Audio English 192 kbps 2.0 / 48 kHz / 192 kbps / DN -4dB / Dolby Surround
DTS Express English 192 kbps 2.0 / 48 kHz / 192 kbps / 24-bit
SUBTITLES:
Codec Language Bitrate Deion
----- -------- ------- -----------
Presentation Graphics English 26,444 kbps
Presentation Graphics Bulgarian 22,436 kbps
Presentation Graphics Croatian 21,201 kbps
Presentation Graphics Czech 21,380 kbps
Presentation Graphics Czech 0,246 kbps
Presentation Graphics Greek 26,558 kbps
Presentation Graphics Greek 56,606 kbps
Presentation Graphics Greek 57,192 kbps
Presentation Graphics Hebrew 17,453 kbps
Presentation Graphics Hungarian 23,694 kbps
Presentation Graphics Hungarian 0,324 kbps
Presentation Graphics Icelandic 22,620 kbps
Presentation Graphics Polish 23,230 kbps
Presentation Graphics Polish 55,960 kbps
Presentation Graphics Polish 49,075 kbps
Presentation Graphics Portuguese 20,786 kbps
Presentation Graphics Portuguese 59,645 kbps
Presentation Graphics Portuguese 48,868 kbps
Presentation Graphics Portuguese 0,233 kbps
Presentation Graphics Romanian 22,055 kbps
Presentation Graphics Russian 64,620 kbps
Presentation Graphics Russian 54,612 kbps
Presentation Graphics Russian 0,355 kbps
Presentation Graphics Spanish 24,662 kbps
Presentation Graphics Spanish 63,712 kbps
Presentation Graphics Spanish 51,006 kbps
Presentation Graphics Spanish 0,199 kbps
Presentation Graphics Thai 18,137 kbps
Presentation Graphics Thai 0,012 kbps
Presentation Graphics Turkish 24,962 kbps
FILES:
Name Time In Length Size Total Bitrate
---- ------- ------ ---- -------------
00102.M2TS 0:00:00.000 1:46:50.987 32 019 185 664 39 955
-

Скриншоты

= Скриншоты фильма =-
= Скриншоты меню =-
-

Вин Дизель

Вин Дизель родился 18 Июля 1967 года в Нью-Йорке, США. Актер не знал своего родного отца, и до сих пор на вопросы журналистов относительно своей национальной принадлежности предпочитает отшучиваться или вовсе не отвечать. Впервые склонность к шоу-бизнесу проявилась у Вина, когда ему было всего 3 года - во время посещения цирка мальчик чуть было не принял участие в выступлении труппы, но был вовремя остановлен матерью. Отчим Дизеля, работавший руководителем театра и преподававший актерское мастерство в Нью-Йоркском университете стимулировал интерес своих детей к искусству, частенько водя их в театры и кино.
Играть на сцене Вин начал совершенно случайно - когда ему было 7 лет, он с компанией друзей решил забраться в здание одного из местных театров чтобы немного похулиганить там. Их вылазка была замечена женщиной, репетирующей что-то на сцене и она позвала к себе детей. Поговорив с ними, она дала им сценарий и обещала дать каждому по , взяв с ребят обещание, что они будут приходить к ней на репетиции каждый день после школы. Так через некоторое время состоялась премьера первого спектакля с Дизелем. В отличие от своих сверстников-актеров, которые предпочитали делать карьеру, снимаясь в телефильмах и рекламе, Вин остался в театре, чему во многом поспособствовал его отец. Работа в театре не приносила подростку реальных доходов, поэтому достигнув возраста 17 лет, он начал искать альтернативные способы зарабатывания денег. К тому времени, занимаясь на протяжении нескольких лет в спортзалах, Вин стал довольно крупным, накачанным парнем, а потому смог без труда устроиться вышибалой в один из популярных ночных клубов на Манхэттене. Именно тогда актер сменил свое настоящее имя на знакомого нам Вина Дизеля.
Поступив в колледж, актер по совету отца решил немного сменить также и свой профиль, став изучать английский язык, учась при этом писать сценарии, чтобы в будущем иметь возможность использовать этот навык для написания ролей для себя любимого - так рассуждал тогда молодой Вин. Проведя три года в колледже, Дизель решил закончить учебу, чтобы начать сниматься в кино. Он отправился в Лос-Анджелес, пребывая в полной уверенности, что его театральный талант будет оценен там по достоинству. Но это было наивным заблуждением. Не сумев найти себе работу в кино и набрав огромное количество долгов, Вин устроился работать на телевидение в качестве телепродавца. За год работы он смог зарекомендовать себя как талантливый продавец и начал зарабатывать неплохие деньги. При этом Дизель начал замечать, что жадность постепенно одерживает над ним верх, заставляя его работать по 18 часов в день. Осознав это и так и не найдя себе работу в кино, он решил вернуться в Нью-Йорк.
По возвращении, его мать подарила ему книжку "Создание фильма стоимостью не дороже старенького авто", подкинув ему идею о том, что кино вполне можно снимать своими силами. Загоревшись этой идеей Вин начал писать сценарий ленты "Strays", однако так и не сумев дать этому проекту ход переключился на что-то попроще, решив снять короткометражку. Сценарий он написал всего за 5 дней - его работа была посвящена близкой ему самому теме - Множественности культур и индивидуальности личности и называлась "Multi Facial" - "МногоЛикий". Фильм был снят всего за 3 дня и стоил его создателям всего 3000 долларов. Вин выступил не только в качестве сценариста и актера, он также спродюсировал свою первую работу и выступил в качестве режиссера. Во время съемок Дизель постоянно получал негативные отклики со стороны окружающих, и под их давлением был вынужден отложить свой проект на полку, даже не смонтировав окончательный вариант. Но его отец встал на сторону Вина и посоветовал ему доделать короткометражку. В результате, фильм увидел свет и был показан небольшой аудитории в 200 человек в Anthology Film Archives на Манхэттене. Получив положительные отзывы, короткометражка была утверждена для участия в Каннском кинофестивале, где также была встречена очень тепло. Одухотворенный своим успехом на фестивале, Вин вернулся в Лос-Анджелес, чтобы снова заняться телепродажами и скопить достаточное количество средств для экранизации своей первой задумки - ленты Strays. Всего за 8 месяцев активной работы Вин вместе со своим другом Джоном Сейлом накопили более 50.000 долларов и приступили к съемкам. А еще через 7 месяцев их лента уже демонстрировалась на кинофестивале в Санденсе 1997 года. Победа на фестивале дала Вину столь необходимые ему средства для раскрутки его ленты, однако несмотря на признание, полученное в Санденсе лента продавалась очень плохо… Оказавшись опять на мели, Дизель опять вернулся в Нью-Йорк. Однако очень скоро с Вином связался его агент, который появился у него на фестивале, и сообщил ему радостную новость - Стивен Спилберг, приметивший Дизеля еще после "Многоликого " хотел встретиться с молодым актером лично. В результате общения, Спилберг взял Дизеля в свой новый проект - "Спасти Рядового Райана", правда пока на второстепенную роль, специально написанную для Вина - роль рядового Адриана Капарзо. Несмотря на то, что роль оказалась совсем маленькой (героя убили в начале картины), это был первый опыт Вина в большом кинематографе.
А тем временем "Многоликий" все продолжал способствовать карьерному росту Вина. Режиссер Бред Берд приступил к съемкам анимационной экранизации детской книжки - "Стальной Гигант" /The Iron Giant/, повествующей о добром, но не понятом людьми из-за своих гигантских размеров роботе, и искал актера для озвучки главного персонажа. По воле случая женщина, работавшая с Дизелем на фестивале в Санденсе, помогала режиссеру в осуществлении кастинга. Она предположила, что кандидатура Дизеля идеально подходит для этой роли и оказалась права - на прослушивании Вин обошел многих гораздо более известных голливудских актеров. Фильм получил теплые отклики критиков, однако из-за слабой рекламной компании, проведенной компанией Warner Brothers сборы фильма оказались незначительными. Следующей лентой актера стала фантастическая картина "Черная Дыра" /Pitch Black/, заслуживающая внимания, на мой взгляд, исключительно из-за участия в ней Дизеля. Простенькая история о группе космических путешественников, в результате аварии на космическом корабле оказавшихся на заброшенной планете со злобными чудовищами, выползающими по ночам на поверхность, не поражает своей оригинальностью, однако харизматичный Дизель в роли уголовника Риддика, способного видеть по ночам и превратившегося из общего врага в единственную надежду на спасение, стоит того, чтобы посмотреть этот, в общем-то, серенький фильм… Съемки фильма проходили для Вина очень нелегко - во время съемок одной из сцен он чуть не вывихнул себе плечо, а из-за специальных контактных линз, имитирующих эффект светящихся в ночи глаз, травмировал себе глазницу, после чего ему пришлось пройти курс реабилитации в одной из специализированных больниц.
Следующей лентой Дизеля стала "Бойлерная" /Boiler Room/ , где он выступил в относительно небольшой роли смышленого брокера Криса Варика. Возможно, Вин согласился на эту далеко не первую роль отчасти, чтобы подстраховать себя от того, чтобы за ним прикрепилось амплуа исключительно экшн-героя. Работой, сделавшей лицо Дизеля знакомым рядовым зрителям по всему мира стал вышедший в 2001 году эшкн фильм Роба Коэна "Форсаж" , ставший первым серьезным кассовым хитом актера. В этой полной драйва, отличного саунда и запоминающихся машин картине Вин выступил в роли главаря банды уличных гонщиков, промышляющих мелким разбоем в свободное от гонок время. Образ крутого парня Дизель с успехом воплотил (кто бы сомневался) и в своей следующей ленте: в "Трех Иксах" вышедших на экраны в 2002 году он выступил в ролях экстремального Бонда 21 века - место смокинга занял альтернативный прикид, место бабочки - татуировки, а вместо вместо головокружительных трюков - … Еще более головокружительные трюки..

Пол Уокер

Пол Уильям Уокер родился 12 сентября 1973 года в американском городе Глендейл, штат Калифорния. Он старший сын бизнесмена Пола Уокера III и бывшей модели Шерил (они развелись в 2004 году). У Пола есть два младших брата — Коди Бью и Калеб, и младшие сёстры — Эшли и Эми. Семья Уокера — мормоны. У актёра ирландские корни.
Актёрская карьера Пола началась в раннем детстве с телевизионной рекламы подгузников «Pampers Diapers» в 1975 году. Став постарше, он продолжал сниматься в различных телевизионных программах и рекламных роликах. Свою первую роль в кино Уокер сыграл в тринадцать лет — в комедийной страшилке «Монстр из шкафа». Затем последовали и другие роли как в кино, так и в телевизионных сериалах («Чарльз в ответе», «Кто в доме хозяин?», «Молодые и дерзкие»). Помимо актёрской работы, Пол активно занимался спортом и принимал участие в различных соревнованиях.
Окончив в 1991 Христианскую школу в Сан-Вэлли в Калифорнии, Уокер решил заняться изучением морской биологии (его идолом был Жак Кусто), поступив в Калифорнийский Колледж. Однако любовь к актёрскому ремеслу взяла верх над занятиями биологией, и в 1994 году Уокер снялся в фильме «Тэмми и Ти-Рекс» вместе с тогда ещё неизвестной Дениз Ричардс.
Карьера
Следующей работой молодого актера стала роль в фильме 1998 года «Встречайте Дидлов» (актёр появляется у Mighty Mighty Bosstones в клипе на песню-саундтреку «Wrong Thing Right Then»). В этом же году актер получает свою следующую роль, став объектом страсти Риз Уизерспун в фильме «Плезантвиль». Хотя картина провалилась в прокате, критики неплохо приняли её, оценив актёрские работы. Эта роль приносит актеру известность и список его работ в кино начинает пополняться новыми ролями. В следующем 1999 году снимается в довольно удачных картинах «Это все она» (небольшая роль лучшего друга Фредди Принца-Младшего) и «Студенческая команда» — о трудных буднях школьного футбола.
Благодаря росту своей популярности у молодёжи, в 2001 году актёр перешёл от игры второстепенных ролей к главным ролям. Свою первую главную роль в кино он сыграл в фильме «Форсаж» вместе с Вином Дизелем. Благодаря неожиданному успеху этой картины Пол Уокер становится известным не только в США, окончательно утвердившись в качестве культвой фигуры молодёжного кино. Спустя всего лишь три месяца после выхода «Форсажа» состоялась премьера ещё одного фильма с Полом Уокером в главной роли — «Ничего себе поездочка»: первая роль в жанре ужасов, где обычно начинают карьеру молодые актёры. В этой картине партнёршей Уокера стала Лили Собески.
Затем последовало продолжение «Форсажа» (уже без Дизеля), и Уокер снялся в клипе Ludacris на песню: «Act A Fool» (посмотрть клип можно здесь); затем последовала роль в экранизации романа Майка Крайтона «В ловушке времени» (где также снялся Джерард Батлер) — картина прохладно была встречена как критиками, так и зрителями. Авантюрно-приключенческий боевик о поисках сокровищ «Добро пожаловать в рай!» (фильм соберёт неплохую кассу, а в 2009 вышло низкобюджетное продолжение с малоизвестными актёрами) с красавицей Джессикой Альбой, где Уокеру удалось блеснуть своими навыками пловца — Пол с детства занимался сёрфингом. Итересно, что у Альбы тоже был подобный опыт: в юности она играла в сериале «Флиппер».
Уокер проявляет себя в качестве драматического актёра, исполнив роль в фильме «Ноэль»: по сюжету, он играет ревнивого жениха-полицейского Пенелопы Крус, которого под Рождество преследует старик, уверенный, что молодой человек — реинкарнация его умершей жены. Многие роли в фильме исполнили знаменитые актёры — Сьюзан Сарандон и Робин Уильямс.
Следующий проект — «Беги без оглядки» — закрепляет за Уокером статус перспективного актёра, умеющего играть не только во второсортных боевиках, однако мрачная криминальная драма, проводящая анналогии с историями братьев Гримм, в духе городских сказок, даже не смогла окупить свой 15-миллионный бюджет, собрав всего $9,3 миллионнов. Затем Уокер снялся в главной роли в независимом «Райском проекте», который вышел сразу на DVD 21 октября 2008 года. Следующая роль — в очередной части франшизи «Форсаж 4», где он вновь поработал с Вином Дизелем, покинувшем съемки в фильме после первой части.
В скором времени должны выйти несколько картин с участием Уокера, среди которых криминальная драма «Налётчики», где Пол снялся вместе с Мэттом Диллоном и Хайдэном Кристенсэном. У картины весьма сложная прокатная судьба — съёмки начались ещё в сентябре 2008 года, но на экраны (а возможно и сразу на DVD) фильм выйдет только в 2010.
Личная жизнь
В апреле 1998 года, Уокер встретил Блисс Элис на съёмках фильма «Студенческая команда», где девушка участвовала в массовке. Пара встречалась 6 лет. В 2006, Уокер познакомился с Жасмин Рилчард-Госнелл, с которой его до сих пор связывают романтические отношения. У Пола также есть дочь Мидоу Рэйн (Meadow Rain — родилась 28 января 1999 года, по другой информации — 4 ноября того же года), которая живёт со своей матерью Ребеккой, бывшей подружкой Уокера, на Гавайях.
У актёра есть два дома — в Хантингтон-Бич и Санта-Барбаре — и собака породы чесапик-бей-ретривер по кличке Лабрадор, лошадь Ковбой. Актёр обожает сёрфинг и прогулки по пляжу, интересуется машинами и авто-механикой. Любит путешествовать и побывал Индии, Фиджи, Коста-Рике, Брунее, Барнео. Поддерживает дружеские отношения с актрисами-близняшками Кайли и Китон Тиндалл.
Помня свои юношеские мечты, в 2006 году Пол Уокер присоединился к Фонду защиты рыбы-меч. Также актёр осуществил свою мечту, снявшись в роли ведущего в документальном фильме о белых акулах производства National Geographic — передача вышла в эфир 16 ноября 2009 года. Пол провёл 11 дней, снимая 7 акул на побережье Мексики. Экспедицию возглавил Крис Фишер.
-Релиз группа:

[Цитировать]



Показать сообщения:    

Текущее время: 06-Дек 19:07

Часовой пояс: UTC + 3


Вы не можете начинать темы
Вы не можете отвечать на сообщения
Вы не можете редактировать свои сообщения
Вы не можете удалять свои сообщения
Вы не можете голосовать в опросах
Вы не можете прикреплять файлы к сообщениям
Вы не можете скачивать файлы

!ВНИМАНИЕ!
Сайт не предоставляет электронные версии произведений, а занимается лишь коллекционированием и каталогизацией ссылок, присылаемых и публикуемых на форуме нашими читателями. Если вы являетесь правообладателем какого-либо представленного материала и не желаете, чтобы ссылка на него находилась в нашем каталоге, свяжитесь с нами, и мы незамедлительно удалим ее. Файлы для обмена на трекере предоставлены пользователями сайта, и администрация не несет ответственности за их содержание. Просьба не заливать файлы, защищенные авторскими правами, а также файлы нелегального содержания!