[ Сегодня идет свободное скачивание без начисления Download ]


Статистика раздачи
Нет
 
   
 
Top  
 
 
-Наемники / Mercenaries (2011) BDRip-«They Always Make You Pay»- Год выпуска: 2011
Производство: Великобритания, Angry Badger Pictures, International Artists Management
Жанр: Боевик
Режиссер: Пэрис Леонти
Актеры: Роберт Фусилла, Кирсти Митчелл, Роб Джеймс-Колльер, Дэнни Сапани, Энтони Бирн, Джофф Белл, Николас Сиди, Майкл Нардон, Вэс Блэквуд, Роберт Болтер, Билли Зейн, Йен Берфилд, Стюарт Скудамор, Эндрю Миллс, Джон Адамс, Дикси Арнольд, Ли Асквит-Коу, Шарлотта Бекет, Адам Леви, Кельвин Гилмор, Джонатан Бонничи, Крис Брейзиер, Филип Бристоу, Мартин Батлер, Тереза Чавез, Чарльз Клэйдон, Крис Коллинз, Ли Крэвен, Крэйг Дэвис, Дэниэл Дреснер, Джонатан Фиск, Пол Холлоуэй, Кристофер Хьюз
Описание фильма:
Энди Марлоу, посылают на Балканы после возникновения военного переворота, чтобы спасти американского посла и его помощника.
Перевод: Профессиональный многоголосый (лицензия), Любительский многоголосый (Чужая и Броневичок), Любительский одноголосый (magnumst)
Продолжительность: 01:36:52
Качество видео: BDRip 1080p
Формат: MKV

Видеокодек: MPEG-4 AVC/H.264
Битрейт видео: ~8500 Кбит/с
Размер кадра: 1920x816
Аудио #1: AC3 (6 ch), 448 Кбит/с (Профессиональный многоголосый) (лицензия)
Аудио #2: AC3 (2 ch), 192 Кбит/с (Любительский многоголосый) (Чужая и Броневичок)
Аудио #3: AC3 (2 ch), 192 Кбит/с (Любительский одноголосый) (magnumst)
Аудио #4: DTS (6 ch), 1509 Кбит/с (Английский, оригинал)
Сэмпл: Ссылка

MediaInfo:

General
Unique ID : 183925513262109319550513249723644813997 (0x8A5EC3EE29B99A30B2AD66F0CA22A2AD)
Complete name : E:\Раздачи\Naemniki.2011.BDRip.1080p.mkv
Format : Matroska
Format version : Version 2
File size : 7.33 GiB
Duration : 1h 36mn
Overall bit rate : 10.8 Mbps
Movie name : Naemniki (2011)-MediaClub-==[Викс]==
Encoded date : UTC 2013-07-08 15:05:54
Writing application : mkvmerge v5.8.0 ('No Sleep / Pillow') built on Sep 2 2012 15:37:04
Writing library : libebml v1.2.3 + libmatroska v1.3.0
Video
ID : 1
Format : AVC
Format/Info : Advanced Video Codec
Format profile : [email protected]
Format settings, CABAC : Yes
Format settings, ReFrames : 4 frames
Codec ID : V_MPEG4/ISO/AVC
Duration : 1h 36mn
Bit rate : 8 500 Kbps
Width : 1 920 pixels
Height : 816 pixels
Display aspect ratio : 2.35:1
Frame rate mode : Constant
Frame rate : 24.000 fps
Color space : YUV
Chroma subsampling : 4:2:0
Bit depth : 8 bits
Scan type : Progressive
Bits/(Pixel*Frame) : 0.226
Stream size : 5.60 GiB (76%)
Writing library : x264 core 133 r2334 a3ac64b
Encoding settings : cabac=1 / ref=4 / deblock=1:-3:-3 / analyse=0x3:0x133 / me=umh / subme=11 / psy=1 / psy_rd=1.00:0.20 / mixed_ref=1 / me_range=48 / chroma_me=1 / trellis=2 / 8x8dct=1 / cqm=0 / deadzone=21,11 / fast_pskip=0 / chroma_qp_offset=0 / threads=6 / lookahead_threads=1 / sliced_threads=0 / nr=0 / decimate=0 / interlaced=0 / bluray_compat=0 / constrained_intra=0 / bframes=8 / b_pyramid=2 / b_adapt=2 / b_bias=0 / direct=3 / weightb=1 / open_gop=0 / weightp=2 / keyint=240 / keyint_min=24 / scenecut=40 / intra_refresh=0 / rc_lookahead=40 / rc=2pass / mbtree=0 / bitrate=8500 / ratetol=1.0 / qcomp=0.60 / qpmin=0 / qpmax=69 / qpstep=4 / cplxblur=20.0 / qblur=0.5 / vbv_maxrate=50000 / vbv_bufsize=55000 / nal_hrd=none / ip_ratio=1.40 / pb_ratio=1.30 / aq=1:1.00
Language : English
Default : Yes
Forced : No
Audio #1
ID : 2
Format : AC-3
Format/Info : Audio Coding 3
Mode extension : CM (complete main)
Format settings, Endianness : Big
Codec ID : A_AC3
Duration : 1h 36mn
Bit rate mode : Constant
Bit rate : 448 Kbps
Channel(s) : 6 channels
Channel positions : Front: L C R, Side: L R, LFE
Sampling rate : 48.0 KHz
Bit depth : 16 bits
Compression mode : Lossy
Stream size : 310 MiB (4%)
Title : PM
Language : Russian
Default : Yes
Forced : No
Audio #2
ID : 3
Format : AC-3
Format/Info : Audio Coding 3
Mode extension : CM (complete main)
Format settings, Endianness : Big
Codec ID : A_AC3
Duration : 1h 36mn
Bit rate mode : Constant
Bit rate : 192 Kbps
Channel(s) : 2 channels
Channel positions : Front: L R
Sampling rate : 48.0 KHz
Bit depth : 16 bits
Compression mode : Lossy
Stream size : 133 MiB (2%)
Title : LM (Чужая и Броневичок)
Language : Russian
Default : No
Forced : No
Audio #3
ID : 4
Format : AC-3
Format/Info : Audio Coding 3
Mode extension : CM (complete main)
Format settings, Endianness : Big
Codec ID : A_AC3
Duration : 1h 36mn
Bit rate mode : Constant
Bit rate : 192 Kbps
Channel(s) : 2 channels
Channel positions : Front: L R
Sampling rate : 48.0 KHz
Bit depth : 16 bits
Compression mode : Lossy
Stream size : 133 MiB (2%)
Title : LO (magnumst)
Language : Russian
Default : No
Forced : No
Audio #4
ID : 5
Format : DTS
Format/Info : Digital Theater Systems
Mode : 16
Format settings, Endianness : Big
Codec ID : A_DTS
Duration : 1h 36mn
Bit rate mode : Constant
Bit rate : 1 509 Kbps
Channel(s) : 6 channels
Channel positions : Front: L C R, Side: L R, LFE
Sampling rate : 48.0 KHz
Bit depth : 16 bits
Compression mode : Lossy
Stream size : 1.02 GiB (14%)
Language : English
Default : No
Forced : No
Menu
00:00:00.000 : :Chapter 01
00:08:57.958 : :Chapter 02
00:18:14.250 : :Chapter 03
00:24:20.416 : :Chapter 04
00:33:44.833 : :Chapter 05
00:43:04.333 : :Chapter 06
00:52:00.958 : :Chapter 07
01:00:53.666 : :Chapter 08
01:10:04.375 : :Chapter 09
01:15:43.750 : :Chapter 10
01:24:01.875 : :Chapter 11
01:33:45.541 : :Chapter 12
01:36:51.500 : :Chapter 13
Скриншоты: Время раздачи: до 5 сидов

[Цитировать]



Показать сообщения:    

Текущее время: 04-Дек 07:03

Часовой пояс: UTC + 3


Вы не можете начинать темы
Вы не можете отвечать на сообщения
Вы не можете редактировать свои сообщения
Вы не можете удалять свои сообщения
Вы не можете голосовать в опросах
Вы не можете прикреплять файлы к сообщениям
Вы не можете скачивать файлы

!ВНИМАНИЕ!
Сайт не предоставляет электронные версии произведений, а занимается лишь коллекционированием и каталогизацией ссылок, присылаемых и публикуемых на форуме нашими читателями. Если вы являетесь правообладателем какого-либо представленного материала и не желаете, чтобы ссылка на него находилась в нашем каталоге, свяжитесь с нами, и мы незамедлительно удалим ее. Файлы для обмена на трекере предоставлены пользователями сайта, и администрация не несет ответственности за их содержание. Просьба не заливать файлы, защищенные авторскими правами, а также файлы нелегального содержания!