[ Сегодня идет свободное скачивание без начисления Download ]


Статистика раздачи
Нет
 
   
 
Top  
 
 
-Оз: Великий и Ужасный / Oz the Great and Powerful (2013) BDRip«Find yourself in Oz.»- Год выпуска: 2013
Производство: США / Walt Disney Pictures, Roth Films
Жанр: Фэнтези, Приключения, Комедия, Семейный
Перевод: Дублированный
Субтитры: Отсутствуют
Дата мировой премьеры: 14 февраля 2013
Дата российской премьеры: 7 марта 2013, «WDSSPR»
Дата выхода DVD релиза: 6 августа 2013, «Уолт Дисней Компани СНГ»
Дата выхода BLU-RAY релиза: 6 августа 2013, «Уолт Дисней Компани СНГ»
Режиссер: Сэм Рэйми
Продюсер: Джо Рот, Дэбби Босси, Грант Кертис
Актеры: Джеймс Франко, Мила Кунис, Рейчел Вайс, Мишель Уильямс, Зак Брафф, Билл Коббс, Джои Кинг, Тони Кокс, Стивен Р. Харт, Эбигейл Спенсер
Роли дублировали: Олег Фёдоров, Светлана Цвиченко, Светлана Кузнецова, Ирина Обрезкова
Описание фильма:
Когда ураган забрасывает циркового фокусника Оскара Диггса из пыльного Канзаса в волшебную страну Оз, склонный к мошенничеству циркач полагает, что он поймал удачу за хвост — ведь с помощью своих трюков он с легкостью может добыть в новых землях и славу и богатство.
Однако его ждёт встреча с тремя чародейками, Теодорой, Эванорой и Глиндой, которые сомневаются в том, тот ли это великий волшебник, появления которого ждали легковерные жители страны Оз. Волей-неволей, пришелец оказывается втянутым в противостояние эпического масштаба, и ему приходится использовать весь свой «магический» арсенал, с добавлением толики настоящего волшебства.
В ситуации выбора между Добром и Злом, Оскару Диггсу предстоит не только стать Великим и Ужасным Волшебником из Страны Оз, но и немного измениться к лучшему.
-Продолжительность: 02:10:29
Качество видео: BDRip 1080p
Видеокодек: MPEG-4 AVC/H.264
Битрейт видео: ~10,2 Мбит/сек
Размер кадра: 1920x1080
Аудио №1: AC3 5.1 640 kbps - Русский
Аудио №2: AC3 5.1 640 kbps - Английский

Media info:

Общее
Уникальный идентификатор : 189041608898660028051150687020688774182 (0x8E3816EB86137D49BDF5FA859AD69426)
Полное имя : E:\my films\OZ.3D.mkv
Формат : Matroska
Версия формата : Version 2
Размер файла : 10,7 Гбайт
Продолжительность : 2 ч. 10 м.
Общий поток : 11,8 Мбит/сек
Название фильма : OZ.3D.CROP.O/U
Дата кодирования : UTC 2013-07-02 11:59:51
Программа кодирования : mkvmerge v5.7.0 ('The Whirlwind') built on Aug 7 2012 14:11:40
Библиотека кодирования : libebml v1.2.3 + libmatroska v1.3.0
Видео
Идентификатор : 1
Формат : AVC
Формат/Информация : Advanced Video Codec
Профиль формата : High@L4.1
Параметр CABAC формата : Да
Параметр ReFrames формата : 4 кадра
Идентификатор кодека : V_MPEG4/ISO/AVC
Продолжительность : 2 ч. 10 м.
Битрейт : 10,2 Мбит/сек
Ширина : 1920 пикселей
Высота : 1080 пикселей
Соотношение сторон : 16:9
Режим частоты кадров : Постоянный
Частота кадров : 23,976 кадра/сек
Цветовое пространство : YUV
Субдискретизация насыщенности : 4:2:0
Битовая глубина : 8 бит
Тип развёртки : Прогрессивная
Бит/(Пиксели*Кадры) : 0.206
Размер потока : 9,34 Гбайт (87%)
Заголовок : rip by I/N
Библиотека кодирования : x264 core 128 r2216M 198a7ea
Настройки программы : cabac=1 / ref=4 / deblock=1:-2:-2 / analyse=0x3:0x133 / me=umh / subme=10 / psy=1 / psy_rd=1.00:0.15 / mixed_ref=1 / me_range=32 / chroma_me=1 / trellis=2 / 8x8dct=1 / cqm=0 / deadzone=21,11 / fast_pskip=1 / chroma_qp_offset=-3 / threads=4 / lookahead_threads=1 / sliced_threads=0 / nr=0 / decimate=1 / interlaced=0 / bluray_compat=0 / constrained_intra=0 / bframes=4 / b_pyramid=2 / b_adapt=2 / b_bias=0 / direct=1 / weightb=1 / open_gop=0 / weightp=2 / keyint=230 / keyint_min=23 / scenecut=40 / intra_refresh=0 / rc_lookahead=60 / rc=crf / mbtree=1 / crf=17.0 / qcomp=0.60 / qpmin=0 / qpmax=69 / qpstep=4 / ip_ratio=1.40 / aq=1:0.60
Default : Да
Forced : Да
Аудио #1
Идентификатор : 2
Формат : AC-3
Формат/Информация : Audio Coding 3
Расширение режима : CM (complete main)
Параметр Endianness формата : Big
Идентификатор кодека : A_AC3
Продолжительность : 2 ч. 10 м.
Вид битрейта : Постоянный
Битрейт : 640 Кбит/сек
Каналы : 6 каналов
Расположение каналов : Front: L C R, Side: L R, LFE
Частота : 48,0 КГц
Битовая глубина : 16 бит
Метод сжатия : С потерями
Размер потока : 597 Мбайт (5%)
Заголовок : Дубляж
Язык : Russian
Default : Да
Forced : Да
Аудио #2
Идентификатор : 3
Формат : AC-3
Формат/Информация : Audio Coding 3
Расширение режима : CM (complete main)
Параметр Endianness формата : Big
Идентификатор кодека : A_AC3
Продолжительность : 2 ч. 10 м.
Вид битрейта : Постоянный
Битрейт : 640 Кбит/сек
Каналы : 6 каналов
Расположение каналов : Front: L C R, Side: L R, LFE
Частота : 48,0 КГц
Битовая глубина : 16 бит
Метод сжатия : С потерями
Размер потока : 597 Мбайт (5%)
Заголовок : Original
Язык : English
Default : Нет
Forced : Нет
Меню
00:00:00.000 : en:(01)00:00:00:000
00:02:37.866 : en:(02)00:02:37:866
00:06:17.335 : en:(03)00:06:17:335
00:09:58.139 : en:(04)00:09:58:139
00:11:33.401 : en:(05)00:11:33:401
00:15:21.670 : en:(06)00:15:21:670
00:17:48.275 : en:(07)00:17:48:275
00:20:30.687 : en:(08)00:20:30:687
00:24:03.400 : en:(09)00:24:03:400
00:24:51.281 : en:(10)00:24:51:281
00:27:03.288 : en:(11)00:27:03:288
00:29:39.152 : en:(12)00:29:39:152
00:32:45.380 : en:(13)00:32:45:380
00:34:32.278 : en:(14)00:34:32:278
00:37:24.909 : en:(15)00:37:24:909
00:38:59.712 : en:(16)00:38:59:712
00:40:41.564 : en:(17)00:40:41:564
00:42:12.488 : en:(18)00:42:12:488
00:42:55.030 : en:(19)00:42:55:030
00:45:36.233 : en:(20)00:45:36:233
00:47:25.676 : en:(21)00:47:25:676
00:48:35.329 : en:(22)00:48:35:329
00:53:33.043 : en:(23)00:53:33:043
00:55:25.989 : en:(24)00:55:25:989
00:57:19.352 : en:(25)00:57:19:352
00:59:14.384 : en:(26)00:59:14:384
01:02:08.975 : en:(27)01:02:08:975
01:05:37.141 : en:(28)01:05:37:141
01:06:25.064 : en:(29)01:06:25:064
01:09:59.570 : en:(30)01:09:59:570
01:12:25.174 : en:(31)01:12:25:174
01:15:42.329 : en:(32)01:15:42:329
01:18:25.033 : en:(33)01:18:25:033
01:19:52.579 : en:(34)01:19:52:579
01:21:32.762 : en:(35)01:21:32:762
01:26:21.342 : en:(36)01:26:21:342
01:28:14.080 : en:(37)01:28:14:080
01:30:38.641 : en:(38)01:30:38:641
01:34:29.789 : en:(39)01:34:29:789
01:37:03.234 : en:(40)01:37:03:234
01:37:41.814 : en:(41)01:37:41:814
01:41:36.965 : en:(42)01:41:36:965
01:42:36.525 : en:(43)01:42:36:525
01:45:58.101 : en:(44)01:45:58:101
01:48:39.930 : en:(45)01:48:39:930
01:51:30.475 : en:(46)01:51:30:475
01:54:33.199 : en:(47)01:54:33:199
01:56:01.037 : en:(48)01:56:01:037
01:58:05.495 : en:(49)01:58:05:495
01:59:41.591 : en:(50)01:59:41:591
02:02:56.952 : en:(51)02:02:56:952
02:04:40.222 : en:(52)02:04:40:222

Особенности релиза:

Справа и слева у видеоряда НИЧЕГО не обрезано, убраны только чёрные полосы.
Всем приятного просмотра!
Проверено на встроенном плейере ТВ Samsung-D6500Скриншоты:

Время раздачи: 24/7 - круглосуточно до 10 скачавших

[Цитировать]



Показать сообщения:    

Текущее время: 07-Дек 17:29

Часовой пояс: UTC + 3


Вы не можете начинать темы
Вы не можете отвечать на сообщения
Вы не можете редактировать свои сообщения
Вы не можете удалять свои сообщения
Вы не можете голосовать в опросах
Вы не можете прикреплять файлы к сообщениям
Вы не можете скачивать файлы

!ВНИМАНИЕ!
Сайт не предоставляет электронные версии произведений, а занимается лишь коллекционированием и каталогизацией ссылок, присылаемых и публикуемых на форуме нашими читателями. Если вы являетесь правообладателем какого-либо представленного материала и не желаете, чтобы ссылка на него находилась в нашем каталоге, свяжитесь с нами, и мы незамедлительно удалим ее. Файлы для обмена на трекере предоставлены пользователями сайта, и администрация не несет ответственности за их содержание. Просьба не заливать файлы, защищенные авторскими правами, а также файлы нелегального содержания!