[ Сегодня идет свободное скачивание без начисления Download ]


Статистика раздачи
Нет
 
   
 
Top  
 
 
-Залечь на дно в Брюгге / In Bruges (2008) BDRip
«Сначала стреляй, потом гуляй»
- Русское название: Залечь на дно в Брюгге
Оригинальное название: In Bruges
Год выпуска: 2008
Производство: Великобритания, США / Blueprint Pictures, Film4, Focus Features
Жанр: Триллер, Драма, Комедия, Криминал
Перевод: Дублированный, Многоголосый закадровый (Русский, Украинский), Одноголосый закадровый
Субтитры: Вшитые отключаемые
Язык субтитров: Русский (R5, M.Calavera, Corvin, hosco на основе R5, Е. Мотыгин, В. Пахуткин «Atrokkus», К. Поздняков, Renks, sunny-sko), английский (full, SDH)
Режиссер: Мартин МакДона
Продюсер: Грэхэм Броадбент, Питер Чернин, Джефф Абберли
Актеры: Колин Фаррелл, Брендан Глисон, Рэйф Файнс, Клеманс Поэзи, Джордан Прентис, Элизабет Беррингтон, Текла Рютен, Желько Иванек, Руди Бломм, Анна Маделей
Описание фильма:
После того, как наемные убийцы Рэй и Кен запороли в Лондоне важное задание, их злобный шеф Гарри приказывает им отправиться в Брюгге и не высовываться. Оказавшись в старинном бельгийском городке, Рэй от нечего делать флиртует с местной красоткой, пока Кен наслаждается жизнью и неожиданным отпуском. Кажется, ничто не предвещает беду в спокойном городе…

Дата мировой премьеры: 17 января 2008
Дата российской премьеры: 15 мая 2008, «Парадиз»
Дата выхода DVD релиза: 23 декабря 2008, «Парадиз Медиа»
Рейтинг R - Детям до 17 лет обязательно присутствие родителей
Возраст 18+ - Зрителям, достигшим 18 лет
Внимание! Присутствует ненормативная лексика.
Продолжительность: 01:46:57
Качество видео: BDRip 1080p
Видео: MPEG4_AVC/H.264, 1920x814, ~17100 kbps, 24 fps
Аудио 1: AC3 5.1, 448 kbps, 48 kHz [Русский - дублированный]
Аудио 2: AC3 5.1, 448 kbps, 48 kHz [Русский - многоголосый закадровый «Кубик в Кубе совместно с Ozz Tv»]
Аудио 3: DTS 5.1, 1536 kbps, 48 kHz [Русский - одноголосый закадровый «А. Гаврилов»]
Аудио 4: DTS 5.1, 1536 kbps, 48 kHz [Русский - одноголосый закадровый «А. Карповский»]
Аудио 5: DTS 5.1, 1536 kbps, 48 kHz [Русский - одноголосый закадровый «В. Завгородний»]
Аудио 6: DTS 5.1, 1536 kbps, 48 kHz [Русский - одноголосый закадровый «К. Поздняков»]
Аудио 7: DTS 5.1, 1536 kbps, 48 kHz [Русский - одноголосый закадровый «Ю. Немахов»]
Аудио 8: AC3 1.0, 96 kbps, 48 kHz [Украинский - многоголосый закадровый «Так Треба Продакшн»]
Аудио 9: DTS 5.1, 1536 kbps, 48 kHz [Английский - оригинал]

Отчёт MediaInfo

Полное имя : D:\Залечь.на.дно.в.Брюгге-In.Bruges.(2008).BDRip.[1080p].mkv
Формат : Matroska
Версия формата : Version 2
Размер файла : 20,7 Гбайт
Продолжительность : 1 ч. 46 м.
Общий поток : 27,7 Мбит/сек
Название фильма : In Bruges (2008)
Дата кодирования : UTC 2013-06-18 02:10:39
Программа кодирования : mkvmerge v5.7.0 ('The Whirlwind') built on Aug 7 2012 14:11:40
Библиотека кодирования : libebml v1.2.3 + libmatroska v1.3.0
Видео
Идентификатор : 1
Формат : AVC
Формат/Информация : Advanced Video Codec
Профиль формата : High@L4.1
Параметр CABAC формата : Да
Параметр ReFrames формата : 5 кадров
Идентификатор кодека : V_MPEG4/ISO/AVC
Продолжительность : 1 ч. 46 м.
Битрейт : 17,1 Мбит/сек
Ширина : 1920 пикселей
Высота : 814 пикселей
Соотношение сторон : 2,35:1
Режим частоты кадров : Постоянный
Частота кадров : 24,000 кадра/сек
Цветовое пространство : YUV
Субдискретизация насыщенности : 4:2:0
Битовая глубина : 8 бит
Тип развёртки : Прогрессивная
Бит/(Пиксели*Кадры) : 0.457
Размер потока : 12,8 Гбайт (62%)
Библиотека кодирования : x264 core 122 r2184 5c85e0a
Настройки программы : cabac=1 / ref=5 / deblock=1:-3:-3 / analyse=0x3:0x113 / me=umh / subme=11 / psy=1 / psy_rd=1.28:0.00 / mixed_ref=1 / me_range=16 / chroma_me=1 / trellis=2 / 8x8dct=1 / cqm=0 / deadzone=21,11 / fast_pskip=0 / chroma_qp_offset=-2 / threads=6 / sliced_threads=0 / nr=0 / decimate=0 / interlaced=0 / bluray_compat=0 / constrained_intra=0 / bframes=8 / b_pyramid=2 / b_adapt=2 / b_bias=0 / direct=3 / weightb=1 / open_gop=0 / weightp=2 / keyint=250 / keyint_min=24 / scenecut=40 / intra_refresh=0 / rc=crf / mbtree=0 / crf=18.0 / qcomp=0.72 / qpmin=0 / qpmax=69 / qpstep=4 / ip_ratio=1.30 / pb_ratio=1.20 / aq=1:0.55
Язык : English
Default : Да
Forced : Нет
Аудио #1
Идентификатор : 2
Формат : AC-3
Формат/Информация : Audio Coding 3
Расширение режима : CM (complete main)
Параметр Endianness формата : Big
Идентификатор кодека : A_AC3
Продолжительность : 1 ч. 46 м.
Вид битрейта : Постоянный
Битрейт : 448 Кбит/сек
Каналы : 6 каналов
Расположение каналов : Front: L C R, Side: L R, LFE
Частота : 48,0 КГц
Битовая глубина : 16 бит
Метод сжатия : С потерями
Размер потока : 343 Мбайт (2%)
Заголовок : AC3 5.1 / 448 kbps / Dub
Язык : Russian
Default : Да
Forced : Нет
Аудио #2
Идентификатор : 3
Формат : AC-3
Формат/Информация : Audio Coding 3
Расширение режима : CM (complete main)
Параметр Endianness формата : Big
Идентификатор кодека : A_AC3
Продолжительность : 1 ч. 46 м.
Вид битрейта : Постоянный
Битрейт : 448 Кбит/сек
Каналы : 6 каналов
Расположение каналов : Front: L C R, Side: L R, LFE
Частота : 48,0 КГц
Битовая глубина : 16 бит
Метод сжатия : С потерями
Размер потока : 343 Мбайт (2%)
Заголовок : AC3 5.1 / 448 kbps / MVO - Кубик в Кубе совместно с Ozz Tv
Язык : Russian
Default : Нет
Forced : Нет
Аудио #3
Идентификатор : 4
Формат : DTS
Формат/Информация : Digital Theater Systems
Идентификатор кодека : A_DTS
Продолжительность : 1 ч. 46 м.
Вид битрейта : Постоянный
Битрейт : 1510 Кбит/сек
Каналы : 6 каналов
Расположение каналов : Front: L C R, Side: L R, LFE
Частота : 48,0 КГц
Битовая глубина : 24 бит
Метод сжатия : С потерями
Размер потока : 1,13 Гбайт (5%)
Заголовок : DTS 5.1 / 1536 kbps / AVO - А. Гаврилов
Язык : Russian
Default : Нет
Forced : Нет
Аудио #4
Идентификатор : 5
Формат : DTS
Формат/Информация : Digital Theater Systems
Идентификатор кодека : A_DTS
Продолжительность : 1 ч. 46 м.
Вид битрейта : Постоянный
Битрейт : 1510 Кбит/сек
Каналы : 6 каналов
Расположение каналов : Front: L C R, Side: L R, LFE
Частота : 48,0 КГц
Битовая глубина : 24 бит
Метод сжатия : С потерями
Размер потока : 1,13 Гбайт (5%)
Заголовок : DTS 5.1 / 1536 kbps / AVO - А. Карповский
Язык : Russian
Default : Нет
Forced : Нет
Аудио #5
Идентификатор : 6
Формат : DTS
Формат/Информация : Digital Theater Systems
Идентификатор кодека : A_DTS
Продолжительность : 1 ч. 46 м.
Вид битрейта : Постоянный
Битрейт : 1510 Кбит/сек
Каналы : 6 каналов
Расположение каналов : Front: L C R, Side: L R, LFE
Частота : 48,0 КГц
Битовая глубина : 24 бит
Метод сжатия : С потерями
Размер потока : 1,13 Гбайт (5%)
Заголовок : DTS 5.1 / 1536 kbps / AVO - В. Завгородний
Язык : Russian
Default : Нет
Forced : Нет
Аудио #6
Идентификатор : 7
Формат : DTS
Формат/Информация : Digital Theater Systems
Идентификатор кодека : A_DTS
Продолжительность : 1 ч. 46 м.
Вид битрейта : Постоянный
Битрейт : 1510 Кбит/сек
Каналы : 6 каналов
Расположение каналов : Front: L C R, Side: L R, LFE
Частота : 48,0 КГц
Битовая глубина : 24 бит
Метод сжатия : С потерями
Размер потока : 1,13 Гбайт (5%)
Заголовок : DTS 5.1 / 1536 kbps / AVO - К. Поздняков
Язык : Russian
Default : Нет
Forced : Нет
Аудио #7
Идентификатор : 8
Формат : DTS
Формат/Информация : Digital Theater Systems
Идентификатор кодека : A_DTS
Продолжительность : 1 ч. 46 м.
Вид битрейта : Постоянный
Битрейт : 1510 Кбит/сек
Каналы : 6 каналов
Расположение каналов : Front: L C R, Side: L R, LFE
Частота : 48,0 КГц
Битовая глубина : 24 бит
Метод сжатия : С потерями
Размер потока : 1,13 Гбайт (5%)
Заголовок : DTS 5.1 / 1536 kbps / AVO - Ю. Немахов
Язык : Russian
Default : Нет
Forced : Нет
Аудио #8
Идентификатор : 9
Формат : AC-3
Формат/Информация : Audio Coding 3
Расширение режима : CM (complete main)
Параметр Endianness формата : Big
Идентификатор кодека : A_AC3
Продолжительность : 1 ч. 46 м.
Вид битрейта : Постоянный
Битрейт : 96,0 Кбит/сек
Каналы : 1 канал
Расположение каналов : Front: C
Частота : 48,0 КГц
Битовая глубина : 16 бит
Метод сжатия : С потерями
Размер потока : 73,4 Мбайт (0%)
Заголовок : MVO - Так Треба Продакшн
Язык : Ukrainian
Default : Нет
Forced : Нет
Аудио #9
Идентификатор : 10
Формат : DTS
Формат/Информация : Digital Theater Systems
Идентификатор кодека : A_DTS
Продолжительность : 1 ч. 46 м.
Вид битрейта : Постоянный
Битрейт : 1510 Кбит/сек
Каналы : 6 каналов
Расположение каналов : Front: L C R, Side: L R, LFE
Частота : 48,0 КГц
Битовая глубина : 24 бит
Метод сжатия : С потерями
Размер потока : 1,13 Гбайт (5%)
Заголовок : DTS 5.1 / 1536 kbps / Original
Язык : English
Default : Нет
Forced : Нет
Текст #1
Идентификатор : 11
Формат : UTF-8
Идентификатор кодека : S_TEXT/UTF8
Идентификатор кодека/Информация : UTF-8 Plain Text
Заголовок : R5 (Paradise)
Язык : Russian
Default : Нет
Forced : Нет
Текст #2
Идентификатор : 12
Формат : UTF-8
Идентификатор кодека : S_TEXT/UTF8
Идентификатор кодека/Информация : UTF-8 Plain Text
Заголовок : M.Calavera
Язык : Russian
Default : Нет
Forced : Нет
Текст #3
Идентификатор : 13
Формат : UTF-8
Идентификатор кодека : S_TEXT/UTF8
Идентификатор кодека/Информация : UTF-8 Plain Text
Заголовок : Corvin
Язык : Russian
Default : Нет
Forced : Нет
Текст #4
Идентификатор : 14
Формат : UTF-8
Идентификатор кодека : S_TEXT/UTF8
Идентификатор кодека/Информация : UTF-8 Plain Text
Заголовок : hosco (на основе R5)
Язык : Russian
Default : Нет
Forced : Нет
Текст #5
Идентификатор : 15
Формат : UTF-8
Идентификатор кодека : S_TEXT/UTF8
Идентификатор кодека/Информация : UTF-8 Plain Text
Заголовок : Егор Мотыгин
Язык : Russian
Default : Нет
Forced : Нет
Текст #6
Идентификатор : 16
Формат : UTF-8
Идентификатор кодека : S_TEXT/UTF8
Идентификатор кодека/Информация : UTF-8 Plain Text
Заголовок : Вадим Пахуткин «Atrokkus»
Язык : Russian
Default : Нет
Forced : Нет
Текст #7
Идентификатор : 17
Формат : UTF-8
Идентификатор кодека : S_TEXT/UTF8
Идентификатор кодека/Информация : UTF-8 Plain Text
Заголовок : Константин Поздняков
Язык : Russian
Default : Нет
Forced : Нет
Текст #8
Идентификатор : 18
Формат : UTF-8
Идентификатор кодека : S_TEXT/UTF8
Идентификатор кодека/Информация : UTF-8 Plain Text
Заголовок : Renks
Язык : Russian
Default : Нет
Forced : Нет
Текст #9
Идентификатор : 19
Формат : UTF-8
Идентификатор кодека : S_TEXT/UTF8
Идентификатор кодека/Информация : UTF-8 Plain Text
Заголовок : sunny-sko («авторская интерпретация»)
Язык : Russian
Default : Нет
Forced : Нет
Текст #10
Идентификатор : 20
Формат : UTF-8
Идентификатор кодека : S_TEXT/UTF8
Идентификатор кодека/Информация : UTF-8 Plain Text
Заголовок : Full
Язык : English
Default : Нет
Forced : Нет
Текст #11
Идентификатор : 21
Формат : UTF-8
Идентификатор кодека : S_TEXT/UTF8
Идентификатор кодека/Информация : UTF-8 Plain Text
Заголовок : SDH
Язык : English
Default : Нет
Forced : Нет
Меню
00:00:00.000 : en:Medieval Town
00:04:48.875 : en:Terrible Tourist
00:10:10.041 : en:Seeing the Sights
00:15:29.790 : en:Message Received
00:20:28.998 : en:Holy Blood
00:25:27.248 : en:Purgatory
00:30:42.580 : en:My Hometown
00:36:55.788 : en:Like a Fairy Tale
00:43:28.329 : en:Someone Nice
00:46:59.954 : en:Drowning Sorrows
00:50:43.203 : en:Choose a Side
00:54:29.995 : en:Suicidal
01:00:27.578 : en:Keep on Moving
01:07:21.660 : en:Back to Bruges
01:12:32.243 : en:Capacity to Change
01:17:49.076 : en:In Your Debt
01:23:56.534 : en:Last Chance
01:29:19.825 : en:Will to Live
01:36:45.657 : en:Principles
01:41:17.990 : en:End Titles

Награды и кинопремии

Оскар, 2009 год

Номинации (1):
  • Лучший сценарий
Золотой глобус, 2009 год

Победитель (1):
  • Лучшая мужская роль (комедия или мюзикл) (Колин Фаррелл)
Номинации (2):
  • Лучший фильм (комедия или мюзикл)
  • Лучшая мужская роль (комедия или мюзикл) (Брендан Глисон)
Британская академия, 2009 год

Победитель (1):
  • Лучший оригинальный сценарий
Номинации (3):
  • Лучшая мужская роль второго плана (Брендан Глисон)
  • Лучший монтаж
  • Лучший британский фильм
Жорж, 2009 год

Победитель (1):
  • Лучший низкобюджетный/артхаусный фильм
Сатурн, 2009 год

Номинации (1):
  • Лучший иностранный фильм
Скриншоты:


Время раздачи: 24/7 (до 10 скачавших)

[Цитировать]



Показать сообщения:    

Текущее время: 07-Дек 17:20

Часовой пояс: UTC + 3


Вы не можете начинать темы
Вы не можете отвечать на сообщения
Вы не можете редактировать свои сообщения
Вы не можете удалять свои сообщения
Вы не можете голосовать в опросах
Вы не можете прикреплять файлы к сообщениям
Вы не можете скачивать файлы

!ВНИМАНИЕ!
Сайт не предоставляет электронные версии произведений, а занимается лишь коллекционированием и каталогизацией ссылок, присылаемых и публикуемых на форуме нашими читателями. Если вы являетесь правообладателем какого-либо представленного материала и не желаете, чтобы ссылка на него находилась в нашем каталоге, свяжитесь с нами, и мы незамедлительно удалим ее. Файлы для обмена на трекере предоставлены пользователями сайта, и администрация не несет ответственности за их содержание. Просьба не заливать файлы, защищенные авторскими правами, а также файлы нелегального содержания!