[ Сегодня идет свободное скачивание без начисления Download ]


Статистика раздачи
Нет
 
   
 
Top  
 
 
-Европа / Europa Report (2013) WEB-DLRip«Fear. Sacrifice. Contact.»- Год выпуска: 2013
Производство: США / Wayfare Entertainment
Жанр: Фантастика, Триллер
Перевод: Любительский одноголосый (den904, перевод Janetta)
Субтитры: Отсутствуют
Дата мировой премьеры: 15 июня 2013
Режиссер: Себастьян Кордеро
Продюсер: Бен Браунинг, Мэтт Левин, Майкл Мехер
Актеры: Шарлто Копли, Эмбет Дэвидц, Микаэл Нюквист, Кристиан Камарго, Каролина Выдра, Дэниэл Ву, Исайя Уитлок мл., Анамария Маринка
Описание фильма:
Фильм повествует о международной космической экспедиции к четвертому спутнику Юпитера, которую снаряжает некая частная корпорация. Цель полета — высадиться на европейскую твердь, где, как считают некоторые ученые, существует вероятность возникновения жизни.

Продолжительность: 01:30:21
Качество видео: WEB-DLRip
Видеокодек: Xvid
Битрейт видео: ~1783 Kbit/s
Размер кадра: 720 x 400
Аудиокодек: AC3 5.1
Битрейт аудио: 384 Kbit/s

MediaInfo

Общее
Полное имя : D:\Торренты\ФИЛЬМЫ торента\Европа.2013.WEBDLRip.avi
Формат : AVI
Формат/Информация : Audio Video Interleave
Размер файла : 1,37 Гбайт
Продолжительность : 1 ч. 30 м.
Общий поток : 2176 Кбит/сек
Программа кодирования : VirtualDubMod 1.5.10.3 (build 2550/release)
Библиотека кодирования : VirtualDubMod build 2550/release
Видео
Идентификатор : 0
Формат : MPEG-4 Visual
Профиль формата : Advanced Simple@L5
Параметр BVOP формата : 2
Параметр QPel формата : Нет
Параметр GMC формата : Без точки перехода
Параметр матрицы формата : Default (H.263)
Режим смешивания : Сжатый битовый поток
Идентификатор кодека : XVID
Идентификатор кодека/Подсказка : XviD
Продолжительность : 1 ч. 30 м.
Битрейт : 1783 Кбит/сек
Ширина : 720 пикс.
Высота : 400 пикс.
Соотношение сторон : 16:9
Частота кадров : 23,976 кадр/сек
Цветовое пространство : YUV
Подвыборка цветности : 4:2:0
Битовая глубина : 8 бит
Тип развёртки : Прогрессивная
Метод сжатия : С потерями
Бит/(Пиксели*Кадры) : 0.258
Размер потока : 1,12 Гбайт (82%)
Библиотека кодирования : XviD 64
Аудио
Идентификатор : 1
Формат : AC-3
Формат/Информация : Audio Coding 3
Расширение режима : CM (complete main)
Идентификатор кодека : 2000
Продолжительность : 1 ч. 30 м.
Вид битрейта : Постоянный
Битрейт : 384 Кбит/сек
Каналы : 6 каналов
Расположение каналов : Front: L C R, Side: L R, LFE
Частота : 48,0 КГц
Битовая глубина : 16 бит
Метод сжатия : С потерями
Размер потока : 248 Мбайт (18%)
Выравнивание : Разделение по промежуткам
Продолжительность промежутка : 42 мс. (1,00 видеокадр)
Время предзагрузки промежутка : 500 ms
Скриншоты:
Время раздачи: 24/7 по возможности

[Цитировать]

Топик был перенесен из форума Новинки кинопроката в форум Фантастика
Henkok



Показать сообщения:    

Текущее время: 27-Фев 23:58

Часовой пояс: UTC + 3


Вы не можете начинать темы
Вы не можете отвечать на сообщения
Вы не можете редактировать свои сообщения
Вы не можете удалять свои сообщения
Вы не можете голосовать в опросах
Вы не можете прикреплять файлы к сообщениям
Вы не можете скачивать файлы

!ВНИМАНИЕ!
Сайт не предоставляет электронные версии произведений, а занимается лишь коллекционированием и каталогизацией ссылок, присылаемых и публикуемых на форуме нашими читателями. Если вы являетесь правообладателем какого-либо представленного материала и не желаете, чтобы ссылка на него находилась в нашем каталоге, свяжитесь с нами, и мы незамедлительно удалим ее. Файлы для обмена на трекере предоставлены пользователями сайта, и администрация не несет ответственности за их содержание. Просьба не заливать файлы, защищенные авторскими правами, а также файлы нелегального содержания!