[ Сегодня идет свободное скачивание без начисления Download ]


Статистика раздачи
Нет
 
   
 
Top  
 
 
-Транс / Trance (2013) BDRemux- Год выпуска: 2013
Производство: Великобритания, Франция / Cloud Eight Films, Decibel Films, Film4, Path?
Жанр: Триллер, Драма, Криминал
Перевод: Дублированный (Line)
Субтитры: Вшитые отключаемые
Язык субтитров: Английские (Full, SDH)
Дата мировой премьеры: 27 марта 2013
Дата российской премьеры: 4 апреля 2013, «Двадцатый Век Фокс СНГ»
Дата выхода DVD релиза: 15 августа 2013, «Двадцатый Век Фокс СНГ»
Режиссер: Дэнни Бойл
Продюсер: Дэнни Бойл, Кристиан Колсон, Бернард Беллью
Актеры: Джеймс МакЭвой, Венсан Кассель, Розарио Доусон, Дэнни Сапани, Мэттью Кросс, Вахаб Ахмед Шейх, Марк Полтимор, Таппенс Мидлтон, Саймон Кунц, Майкл Шэйффер
Описание фильма:
Аукционер Саймон не в силах противостоять искушению — вступает в сговор с бандой грабителей и организует похищение уникального лота стоимостью в миллионы долларов. Однако налет оканчивается не совсем так, как он предполагал вначале. Аукционера оглушают ударом тупого предмета по голове, в результате которого он теряет какие бы то ни было воспоминания о том, что произошло. Разумеется, он также забывает, куда спрятал ценную картину. Пытками добиться ответа от ничего не понимающего Саймона не удается. Тогда главарь банды решает нанять психотерапевта, чтобы она смогла выудить ценную информацию из поврежденного мозга заложника.

Продолжительность: 01:41:19
Качество видео: BDRemux 1080p
Видеокодек: MPEG-4 AVC/H.264
Битрейт видео: ~30468 kb/s
Размер кадра: 1920 х 1080
Аудиокодек: AC3 5.1, DTS-HD MA, AC-3 5.1
Аудио 1: Русский, AC-3, 5.1 / 48 kHz / 448 kbps / 16-bit (Дублированный)
Аудио 2: Английский, DTS-HD Master Audio / 7.1 / 48 kHz / 4709 kbps / 24-bit (DTS Core: 5.1-ES / 48 kHz / 1509 kbps / 24-bit)
Аудио 3: Английский, AC-3, 5.1 / 48 kHz / 448 kbps / 16-bit (Descriptive)
Сэмпл: Скачать

MediaInfo:

Общее
Уникальный идентификатор : 239158208277121429657911105782224590095 (0xB3EC320AC2A9E0AC889C9A308111150F)
Полное имя : Trance.2013.1080p.BDRemux.mkv
Формат : Matroska
Версия формата : Version 4 / Version 2
Размер файла : 25,5 Гбайт
Продолжительность : 1 ч. 41 м.
Режим общего битрейта : Переменный
Общий поток : 36,1 Мбит/сек
Дата кодирования : UTC 2013-07-12 22:26:40
Программа кодирования : mkvmerge v6.3.0 ('You can't stop me!') built on Jun 28 2013 20:09:41
Библиотека кодирования : libebml v1.3.0 + libmatroska v1.4.0
Видео
Идентификатор : 1
Формат : AVC
Формат/Информация : Advanced Video Codec
Профиль формата : High@L4.1
Параметр CABAC формата : Да
Параметр ReFrames формата : 4 кадра
Идентификатор кодека : V_MPEG4/ISO/AVC
Продолжительность : 1 ч. 41 м.
Вид битрейта : Переменный
Максимальный битрейт : 33,2 Мбит/сек
Ширина : 1920 пикселей
Высота : 1080 пикселей
Соотношение сторон : 16:9
Режим частоты кадров : Постоянный
Частота кадров : 23,976 кадра/сек
Цветовое пространство : YUV
Субдискретизация насыщенности : 4:2:0
Битовая глубина : 8 бит
Тип развёртки : Прогрессивная
Язык : English
Default : Нет
Forced : Нет
Аудио #1
Идентификатор : 2
Формат : AC-3
Формат/Информация : Audio Coding 3
Расширение режима : CM (complete main)
Параметр Endianness формата : Big
Идентификатор кодека : A_AC3
Продолжительность : 1 ч. 41 м.
Вид битрейта : Постоянный
Битрейт : 448 Кбит/сек
Каналы : 6 каналов
Расположение каналов : Front: L C R, Side: L R, LFE
Частота : 48,0 КГц
Битовая глубина : 16 бит
Метод сжатия : С потерями
Размер потока : 325 Мбайт (1%)
Язык : Russian
Default : Да
Forced : Нет
Аудио #2
Идентификатор : 3
Формат : DTS
Формат/Информация : Digital Theater Systems
Профиль формата : MA / Core
Режим : 16
Параметр Endianness формата : Big
Идентификатор кодека : A_DTS
Продолжительность : 1 ч. 41 м.
Вид битрейта : Переменный
Битрейт : Неизвестно / 1509 Кбит/сек
Каналы : 8 каналов / 6 каналов
Расположение каналов : Front: L C R, Side: L R, Back: L R, LFE / Front: L C R, Side: L R, LFE
Частота : 48,0 КГц
Битовая глубина : 24 бит
Метод сжатия : Без потерь / Lossy
Язык : English
Default : Нет
Forced : Нет
Аудио #3
Идентификатор : 4
Формат : AC-3
Формат/Информация : Audio Coding 3
Расширение режима : CM (complete main)
Параметр Endianness формата : Big
Идентификатор кодека : A_AC3
Продолжительность : 1 ч. 41 м.
Вид битрейта : Постоянный
Битрейт : 448 Кбит/сек
Каналы : 6 каналов
Расположение каналов : Front: L C R, Side: L R, LFE
Частота : 48,0 КГц
Битовая глубина : 16 бит
Метод сжатия : С потерями
Размер потока : 325 Мбайт (1%)
Заголовок : Descriptive
Язык : English
Default : Нет
Forced : Нет
Текст #1
Идентификатор : 5
Формат : UTF-8
Идентификатор кодека : S_TEXT/UTF8
Идентификатор кодека/Информация : UTF-8 Plain Text
Язык : English
Default : Нет
Forced : Нет
Текст #2
Идентификатор : 6
Формат : UTF-8
Идентификатор кодека : S_TEXT/UTF8
Идентификатор кодека/Информация : UTF-8 Plain Text
Заголовок : SDH
Язык : English
Default : Нет
Forced : Нет
Меню
00:00:00.000 : en:00:00:00.000
00:04:05.871 : en:00:04:05.871
00:08:18.832 : en:00:08:18.832
00:10:09.859 : en:00:10:09.859
00:13:06.786 : en:00:13:06.786
00:15:42.650 : en:00:15:42.650
00:17:33.678 : en:00:17:33.678
00:21:57.274 : en:00:21:57.274
00:23:46.634 : en:00:23:46.634
00:25:54.720 : en:00:25:54.720
00:28:11.398 : en:00:28:11.398
00:31:08.533 : en:00:31:08.533
00:33:40.644 : en:00:33:40.644
00:36:31.272 : en:00:36:31.272
00:39:10.723 : en:00:39:10.723
00:41:49.340 : en:00:41:49.340
00:45:58.881 : en:00:45:58.881
00:51:51.483 : en:00:51:51.483
00:59:00.287 : en:00:59:00.287
01:02:10.894 : en:01:02:10.894
01:08:08.584 : en:01:08:08.584
01:12:06.822 : en:01:12:06.822
01:14:36.138 : en:01:14:36.138
01:16:13.152 : en:01:16:13.152
01:25:36.548 : en:01:25:36.548
01:28:16.291 : en:01:28:16.291
01:31:34.781 : en:01:31:34.781
01:35:32.769 : en:01:35:32.769
Скриншоты:
Время раздачи: 24/7

[Цитировать]

Топик был перенесен из форума Новинки кинопроката (HD Video) в форум Зарубежное кино (HD Video)
Bootch



Показать сообщения:    

Текущее время: 22-Янв 21:22

Часовой пояс: UTC + 3


Вы не можете начинать темы
Вы не можете отвечать на сообщения
Вы не можете редактировать свои сообщения
Вы не можете удалять свои сообщения
Вы не можете голосовать в опросах
Вы не можете прикреплять файлы к сообщениям
Вы не можете скачивать файлы

!ВНИМАНИЕ!
Сайт не предоставляет электронные версии произведений, а занимается лишь коллекционированием и каталогизацией ссылок, присылаемых и публикуемых на форуме нашими читателями. Если вы являетесь правообладателем какого-либо представленного материала и не желаете, чтобы ссылка на него находилась в нашем каталоге, свяжитесь с нами, и мы незамедлительно удалим ее. Файлы для обмена на трекере предоставлены пользователями сайта, и администрация не несет ответственности за их содержание. Просьба не заливать файлы, защищенные авторскими правами, а также файлы нелегального содержания!