[ Сегодня идет свободное скачивание без начисления Download ]


Статистика раздачи
Нет
 
   
 
Top  
 
 
-Убойный уикенд / Cottage Country (2013) BDRip«They aren't going to let a little blood spoil their perfect wedding.»- Год выпуска: 2013
Производство: Канада / Whizbang Films Inc.
Жанр: Боевик, Комедия, Криминал
Перевод: Любительский (одноголосый) [den904]
Субтитры: Вшитые отключаемые
Язык субтитров: Шведский, Норвежский, Датский, Финский
Дата мировой премьеры: 3 июля 2013
Дата российской премьеры: 10 октября 2013, «Наше Кино»
Режиссер: Питер Веллингтон
Продюсер: Фрэнк Сиракуза, Пол Гросс
Актеры: Тайлер Лабайн, Малин Акерман, Джим Аннан, Бенджамин Эйрс, Сабрина Грдевич, Кристианна Хауфлер, Дэн Петронижевич, Люси Панч, Рэнди Браун, Уэйн В. Джонсон
Описание фильма:
Тодд Чиповски собирается провести незабываемый уик-энд в загородном коттедже, который он арендовал специально для того, чтобы сделать предложение своей возлюбленной Кэмми Райан. Но торжественное событие и чудесный отдых подпортило появление братца Тодда Сэлинджера и его подружки Маши. Однако выходные все равно становятся для героев незабываемыми — особенно после того, как Тодд в порыве ярости случайно убивает своего брата топором.

Продолжительность: 01:31:23
Качество видео: BDRip 720p
Видеокодек: MPEG-4 AVC/H.264
Битрейт видео: ~4963 Kbit/s
Размер кадра: 1280 x 694
Aудио #1: AC3, 48,0 КHz, 5.1, 448 Kbit/s - Русский
Aудио #2: DTS, 48,0 КHz, 5.1, 1510 - Aнглийский
Дополнительно: Сохранены оригинальные чаптеры как на Blu-ray

MediaInfo

Общее
Уникальный идентификатор : 208000881988312444065103179921972498211 (0x9C7B8340D5464EF7A3D705351B038F23)
Полное имя : D:\Торренты\Убойный уикенд.2013.BDRip.720p.mkv
Формат : Matroska
Размер файла : 4,51 Гбайт
Продолжительность : 1 ч. 31 м.
Общий поток : 7061 Кбит/сек
Дата кодирования : UTC 2013-07-12 12:31:20
Программа кодирования : mkvmerge v5.0.1 ('Es ist Sommer') built on Oct 9 2011 11:55:43
Библиотека кодирования : libebml v1.2.2 + libmatroska v1.3.0
Видео
Идентификатор : 1
Формат : AVC
Формат/Информация : Advanced Video Codec
Профиль формата : [email protected]
Параметр CABAC формата : Да
Параметр ReFrames формата : 9 кадров
Режим смешивания : Header stripping
Идентификатор кодека : V_MPEG4/ISO/AVC
Продолжительность : 1 ч. 31 м.
Битрейт : 4963 Кбит/сек
Ширина : 1280 пикс.
Высота : 694 пикс.
Соотношение сторон : 16:9
Частота кадров : 24,000 кадр/сек
Цветовое пространство : YUV
Подвыборка цветности : 4:2:0
Битовая глубина : 8 бит
Тип развёртки : Прогрессивная
Бит/(Пиксели*Кадры) : 0.233
Размер потока : 3,17 Гбайт (70%)
Библиотека кодирования : x264 core 130 r2273 b3065e6
Настройки программы : cabac=1 / ref=9 / deblock=1:-3:-3 / analyse=0x3:0x113 / me=umh / subme=10 / psy=1 / psy_rd=1.00:0.00 / mixed_ref=1 / me_range=32 / chroma_me=1 / trellis=2 / 8x8dct=1 / cqm=0 / deadzone=21,11 / fast_pskip=1 / chroma_qp_offset=-2 / threads=16 / lookahead_threads=2 / sliced_threads=0 / nr=0 / decimate=1 / interlaced=0 / bluray_compat=0 / constrained_intra=0 / bframes=8 / b_pyramid=2 / b_adapt=2 / b_bias=0 / direct=3 / weightb=1 / open_gop=0 / weightp=2 / keyint=240 / keyint_min=24 / scenecut=40 / intra_refresh=0 / rc_lookahead=60 / rc=crf / mbtree=1 / crf=17.5 / qcomp=0.80 / qpmin=0 / qpmax=69 / qpstep=4 / vbv_maxrate=50000 / vbv_bufsize=50000 / crf_max=0.0 / nal_hrd=none / ip_ratio=1.40 / aq=2:0.90
Язык : English
Аудио #1
Идентификатор : 2
Формат : AC-3
Формат/Информация : Audio Coding 3
Расширение режима : CM (complete main)
Режим смешивания : Header stripping
Идентификатор кодека : A_AC3
Продолжительность : 1 ч. 31 м.
Вид битрейта : Постоянный
Битрейт : 448 Кбит/сек
Каналы : 6 каналов
Расположение каналов : Front: L C R, Side: L R, LFE
Частота : 48,0 КГц
Битовая глубина : 16 бит
Метод сжатия : С потерями
Размер потока : 293 Мбайт (6%)
Язык : Russian
Аудио #2
Идентификатор : 3
Формат : DTS
Формат/Информация : Digital Theater Systems
Режим смешивания : Header stripping
Идентификатор кодека : A_DTS
Продолжительность : 1 ч. 31 м.
Вид битрейта : Постоянный
Битрейт : 1510 Кбит/сек
Каналы : 6 каналов
Расположение каналов : Front: L C R, Side: L R, LFE
Частота : 48,0 КГц
Битовая глубина : 24 бит
Метод сжатия : С потерями
Размер потока : 987 Мбайт (21%)
Язык : English
Текст #1
Идентификатор : 4
Формат : VobSub
Режим смешивания : zlib
Идентификатор кодека : S_VOBSUB
Идентификатор кодека/Информация : The same subtitle format used on DVDs
Язык : Swedish
Текст #2
Идентификатор : 5
Формат : VobSub
Режим смешивания : zlib
Идентификатор кодека : S_VOBSUB
Идентификатор кодека/Информация : The same subtitle format used on DVDs
Язык : Norwegian
Текст #3
Идентификатор : 6
Формат : VobSub
Режим смешивания : zlib
Идентификатор кодека : S_VOBSUB
Идентификатор кодека/Информация : The same subtitle format used on DVDs
Язык : Danish
Текст #4
Идентификатор : 7
Формат : VobSub
Режим смешивания : zlib
Идентификатор кодека : S_VOBSUB
Идентификатор кодека/Информация : The same subtitle format used on DVDs
Язык : Finnish
Меню
00:00:00.000 : en:00:00:00.000
00:01:55.500 : en:00:01:55.500
00:10:31.500 : en:00:10:31.500
00:18:10.500 : en:00:18:10.500
00:29:34.000 : en:00:29:34.000
00:37:56.000 : en:00:37:56.000
00:48:55.500 : en:00:48:55.500
01:00:25.000 : en:01:00:25.000
01:08:17.000 : en:01:08:17.000
01:18:36.000 : en:01:18:36.000
01:27:52.000 : en:01:27:52.000
Скриншоты:
Время раздачи: 24/7 по возможности

[Цитировать]

Топик был перенесен из форума Новинки кинопроката (HD Video) в форум Зарубежное кино (HD Video)
Bootch



Показать сообщения:    

Текущее время: 05-Дек 01:27

Часовой пояс: UTC + 3


Вы не можете начинать темы
Вы не можете отвечать на сообщения
Вы не можете редактировать свои сообщения
Вы не можете удалять свои сообщения
Вы не можете голосовать в опросах
Вы не можете прикреплять файлы к сообщениям
Вы не можете скачивать файлы

!ВНИМАНИЕ!
Сайт не предоставляет электронные версии произведений, а занимается лишь коллекционированием и каталогизацией ссылок, присылаемых и публикуемых на форуме нашими читателями. Если вы являетесь правообладателем какого-либо представленного материала и не желаете, чтобы ссылка на него находилась в нашем каталоге, свяжитесь с нами, и мы незамедлительно удалим ее. Файлы для обмена на трекере предоставлены пользователями сайта, и администрация не несет ответственности за их содержание. Просьба не заливать файлы, защищенные авторскими правами, а также файлы нелегального содержания!