[ Сегодня идет свободное скачивание без начисления Download ]


Статистика раздачи
Нет
 
   
 
Top  
 
 
-Танго либре / Tango libre (2012) DVDRip- Год выпуска: 2012
Жанр: Драма
Описание фильма:
Охранник тюрьмы знакомится с женщиной на еженедельных курсах танго. Они снова встречаются в тюрьме, где он работает, когда она приходит на свидание к своему мужу заключенному. В течение дальнейшего времени он втягивается в ее сложную личную жизнь. Тем временем заключенные тоже решили организовать курсы танго.
Режиссер: Фредерик Фонтейн
Актеры: Франсуа Дамиенс, Серхи Лопес, Ян Хамменекер, Энн Полицевич, Захари Шассерьо, Кристиан Кмиотек, Давид Муржиа, Фредерик Френе, Доминик Лежён, Марк Шарле
Перевод: Многоголосый закадровый

Дата мировой премьеры: 29 августа 2012
Дата российской премьеры: 11 июля 2013, «Кино без границ»
Дата выхода DVD релиза: 12 августа 2013, «Новый Диск»
Продолжительность: 01:32:55
Качество видео: DVDRip
Видео: MPEG4, XviD, 720x304 (2.35:1), 25.000 fps, 1 887 Kbps (0.345 bit/pixel)
Аудио: AC-3, 48.0 KHz, 2 ch, 192 Kbps, CBR

МедиаИнфо:

Видео
Идентификатор : 0
Формат : MPEG-4 Visual
Профиль формата : Advanced [email protected]
Параметр BVOP формата : 2
Параметр QPel формата : Нет
Параметр GMC формата : Без точки перехода
Параметр матрицы формата : Default (MPEG)
Идентификатор кодека : XVID
Идентификатор кодека/Подсказка : XviD
Продолжительность : 1 ч. 32 м.
Битрейт : 1887 Кбит/сек
Ширина : 720 пикселей
Высота : 304 пикселя
Соотношение сторон : 2,35:1
Частота кадров : 25,000 кадров/сек
Цветовое пространство : YUV
Субдискретизация насыщенности : 4:2:0
Битовая глубина : 8 бит
Тип развёртки : Прогрессивная
Метод сжатия : С потерями
Бит/(Пиксели*Кадры) : 0.345
Размер потока : 1,23 Гбайт (90%)
Библиотека кодирования : XviD 1.2.1 (UTC 2008-12-04)
Аудио
Идентификатор : 1
Формат : AC-3
Формат/Информация : Audio Coding 3
Расширение режима : CM (complete main)
Параметр Endianness формата : Big
Идентификатор кодека : 2000
Продолжительность : 1 ч. 32 м.
Вид битрейта : Постоянный
Битрейт : 192 Кбит/сек
Каналы : 2 канала
Расположение каналов : Front: L R
Частота : 48,0 КГц
Битовая глубина : 16 бит
Метод сжатия : С потерями
Размер потока : 128 Мбайт (9%)
Выравнивание : Разделение по промежуткам
Продолжительность промежутка : 40 мс. (1,00 видеокадр)
Время предзагрузки промежутка : 500 мс.
Скриншоты:

Время раздачи: с 11:00 до 01:00

[Цитировать]



Показать сообщения:    

Текущее время: 05-Дек 07:34

Часовой пояс: UTC + 3


Вы не можете начинать темы
Вы не можете отвечать на сообщения
Вы не можете редактировать свои сообщения
Вы не можете удалять свои сообщения
Вы не можете голосовать в опросах
Вы не можете прикреплять файлы к сообщениям
Вы не можете скачивать файлы

!ВНИМАНИЕ!
Сайт не предоставляет электронные версии произведений, а занимается лишь коллекционированием и каталогизацией ссылок, присылаемых и публикуемых на форуме нашими читателями. Если вы являетесь правообладателем какого-либо представленного материала и не желаете, чтобы ссылка на него находилась в нашем каталоге, свяжитесь с нами, и мы незамедлительно удалим ее. Файлы для обмена на трекере предоставлены пользователями сайта, и администрация не несет ответственности за их содержание. Просьба не заливать файлы, защищенные авторскими правами, а также файлы нелегального содержания!