[ Сегодня идет свободное скачивание без начисления Download ]


Статистика раздачи
Нет
 
   
 
Top  
 
 
-Звездная палата / The Star Chamber (1983) BDRip- Год выпуска: 1983
Жанр: Детектив, Триллер
Описание фильма:
Судье Стивену Хардину кажется, что он сходит с ума: из-за оплошности полицейских, совершивших ошибку при задержании преступника, он вынужден признать его невиновным. В результате убийца 8-летнего мальчика оказывается на свободе. Это не единичный случай.
Судья Бен Кофилд, видя душевные терзания Хардина, предлагает ему стать членом тайного общества, члены которого — такие же слуги несовершенной системы правосудия. Главная цель организации — разбираться с преступниками собственными силами.
Режиссер: Питер Хаймс
Актеры: Майкл Дуглас, Хэл Холбрук, Яфет Котто, Шэрон Глесс, Джеймс Б. Сиккинг, Джо Регалбуто, Дон Калфа
Продолжительность: 01:48:47
Качество видео: BDRip
Перевод: профессиональный (многоголосый закадровый)

Формат: AVI
Видео: XviD, 720x304 (2.37:1), 23.976 fps, 1499 kbps avg, 0.24 bit/pixel
Аудио: AC3 Dolby Digital, 48 kHz, 448 kbps, 3/2 (L,C,R,l,r) + LFE ch
Сэмпл: Ссылка

MediaInfo

Общее
Полное имя : Zvezdnaya.Palata.1983.XviD.BDRip.RusMVO.AMAPAHT.avi
Формат : AVI
Формат/Информация : Audio Video Interleave
Размер файла : 1,49 Гбайт
Продолжительность : 1 ч. 48 м.
Общий поток : 1957 Кбит/сек
Название фильма : Zvezdnaya.Palata.1983.XviD.BDRip.RusMVO.AMAPAHT
Режиссёр : AMAPAHT
Жанр : Drama/Mystery/Thriller
Программа кодирования : VirtualDubMod 1.5.10.3 | www.virtualdub-fr.org || (build 2550/release)
Формат оригинала/Имя : The Star Chamber / 1983
Примечание : RusMVO
Видео
Идентификатор : 0
Формат : MPEG-4 Visual
Профиль формата : Advanced Simple@L5
Параметр BVOP формата : 2
Параметр QPel формата : Нет
Параметр GMC формата : Без точки перехода
Параметр матрицы формата : Выборочная
Идентификатор кодека : XVID
Идентификатор кодека/Подсказка : XviD
Продолжительность : 1 ч. 48 м.
Битрейт : 1499 Кбит/сек
Ширина : 720 пикселей
Высота : 304 пикселя
Соотношение сторон : 2,35:1
Частота кадров : 23,976 кадра/сек
Цветовое пространство : YUV
Субдискретизация насыщенности : 4:2:0
Битовая глубина : 8 бит
Тип развёртки : Прогрессивная
Метод сжатия : С потерями
Бит/(Пиксели*Кадры) : 0.286
Размер потока : 1,14 Гбайт (77%)
Библиотека кодирования : XviD 73
Аудио
Идентификатор : 1
Формат : AC-3
Формат/Информация : Audio Coding 3
Расширение режима : CM (complete main)
Идентификатор кодека : 2000
Продолжительность : 1 ч. 48 м.
Вид битрейта : Постоянный
Битрейт : 448 Кбит/сек
Каналы : 6 каналов
Расположение каналов : Front: L C R, Side: L R, LFE
Частота : 48,0 КГц
Битовая глубина : 16 бит
Метод сжатия : С потерями
Размер потока : 349 Мбайт (23%)
Выравнивание : Разделение по промежуткам
Продолжительность промежутка : 42 мс. (1,00 видеокадр)
Время предзагрузки промежутка : 500 мс.
Скриншоты:

Время раздачи: 24/7 (до первых 50 скачавших)

[Цитировать]



Показать сообщения:    

Текущее время: 08-Дек 17:14

Часовой пояс: UTC + 3


Вы не можете начинать темы
Вы не можете отвечать на сообщения
Вы не можете редактировать свои сообщения
Вы не можете удалять свои сообщения
Вы не можете голосовать в опросах
Вы не можете прикреплять файлы к сообщениям
Вы не можете скачивать файлы

!ВНИМАНИЕ!
Сайт не предоставляет электронные версии произведений, а занимается лишь коллекционированием и каталогизацией ссылок, присылаемых и публикуемых на форуме нашими читателями. Если вы являетесь правообладателем какого-либо представленного материала и не желаете, чтобы ссылка на него находилась в нашем каталоге, свяжитесь с нами, и мы незамедлительно удалим ее. Файлы для обмена на трекере предоставлены пользователями сайта, и администрация не несет ответственности за их содержание. Просьба не заливать файлы, защищенные авторскими правами, а также файлы нелегального содержания!