[ Сегодня идет свободное скачивание без начисления Download ]


Статистика раздачи
Нет
 
   
 
Top  
 
 
-Достучаться до небес / Knockin' on Heaven's Door (1997) BDRip
«Быстрый автомобиль, миллион марок в багажнике, и всего одна неделя жить.»
- Русское название: Достучаться до небес
Оригинальное название: Knockin' on Heaven's Door
Год выпуска: 1997
Производство: Германия / Mr. Brown Entertainment
Жанр: Драма, Комедия, Криминал
Перевод: Дублированный, Двухголосый закадровый, Одноголосый закадровый
Субтитры: Вшиты отключаемые
Язык субтитров: Русский (CP Digital, Тивионика), английский, немецкий
Режиссер: Томас Ян
Продюсер: Андре Хеннике, Тиль Швайгер, Томас Циклер
Актеры: Тиль Швайгер, Ян Йозеф Лиферс, Тьерри Ван Вервеке, Мориц Бляйбтрой, Хуб Стапель, Леонард Лансинк, Ральф Херфорт, Корнелия Фробесс, Рутгер Хауэр, Кристиана Пауль
Описание фильма:
Судьба сводит героев картины в больнице, где врачи выносят им смертный приговор. Счет времени их жизней идет на часы. Дальнейшие события в фильме разворачиваются в стремительном темпе. Украв машину с миллионом немецких марок в багажнике, они сбегают из больницы. Их преследуют наемные убийцы, они становятся грабителями поневоле, за ними гонится полиция, они попадают в бордель. Но тем не менее продолжают мчаться вперед, навстречу своей судьбе.
Дата мировой премьеры: 20 февраля 1997
Дата выхода DVD релиза: 28 февраля 2008, «CP-Digital»
Рейтинг R - Детям до 17 лет обязательно присутствие родителей
Возраст 16+ - Зрителям, достигшим 16 лет

Продолжительность: 01:28:56
Качество видео: BDRip 1080p
Видео: MPEG4_AVC/H.264, 1920x816, ~11400 kbps, 23.976 fps, 0.304 bit/pixel
Аудио 1: AC3 2.0, 320 kbps [Русский - дублированный «Мосфильм»]
Аудио 2: DTS 5.1, 1536 kbps [Русский - двухголосый закадровый «CP Digital»]
Аудио 3: DTS 5.1, 1536 kbps [Русский - одноголосый закадровый «Ю. Сербин»]
Аудио 4: DTS 5.1, 768 kbps [Русский - одноголосый закадровый «Лектор»]
Аудио 5: AC3 5.1, 640 kbps [Английский - дублированный]
Аудио 6: AC3 5.1, 640 kbps [Немецкий - оригинал]
Аудио 7: AC3 2.0, 224 kbps [Немецкий - комментарии 1]
Аудио 8: AC3 2.0, 224 kbps [Немецкий - комментарии 2]

Отчёт MediaInfo

Полное имя : D:\Достучаться.до.небес-Knockin.on.Heavens.Door.(1997).BDRip.[1080p].mkv
Формат : Matroska
Версия формата : Version 2
Размер файла : 10,7 Гбайт
Продолжительность : 1 ч. 28 м.
Общий поток : 17,3 Мбит/сек
Название фильма : Knockin' on Heaven's Door (1997)
Дата кодирования : UTC 2013-06-17 05:34:53
Программа кодирования : mkvmerge v5.7.0 ('The Whirlwind') built on Aug 7 2012 14:11:40
Библиотека кодирования : libebml v1.2.3 + libmatroska v1.3.0
Видео
Идентификатор : 1
Формат : AVC
Формат/Информация : Advanced Video Codec
Профиль формата : High@L4.1
Параметр CABAC формата : Да
Параметр ReFrames формата : 5 кадров
Идентификатор кодека : V_MPEG4/ISO/AVC
Продолжительность : 1 ч. 28 м.
Битрейт : 11,4 Мбит/сек
Ширина : 1920 пикселей
Высота : 816 пикселей
Соотношение сторон : 2,35:1
Режим частоты кадров : Постоянный
Частота кадров : 23,976 кадра/сек
Цветовое пространство : YUV
Субдискретизация насыщенности : 4:2:0
Битовая глубина : 8 бит
Тип развёртки : Прогрессивная
Бит/(Пиксели*Кадры) : 0.304
Размер потока : 6,89 Гбайт (64%)
Библиотека кодирования : x264 core 68 r1183M f21daff
Настройки программы : cabac=1 / ref=5 / deblock=1:-3:-3 / analyse=0x3:0x113 / me=umh / subme=9 / psy_rd=0.9:0.1 / mixed_ref=1 / me_range=32 / chroma_me=1 / trellis=2 / 8x8dct=1 / cqm=0 / deadzone=21,11 / chroma_qp_offset=0 / threads=4 / nr=0 / decimate=0 / mbaff=0 / bframes=8 / b_pyramid=0 / b_adapt=2 / b_bias=0 / direct=3 / wpredb=1 / keyint=250 / keyint_min=25 / scenecut=40 / rc=2pass / bitrate=11433 / ratetol=1.0 / qcomp=0.60 / qpmin=10 / qpmax=51 / qpstep=4 / cplxblur=20.0 / qblur=0.5 / vbv_maxrate=50000 / vbv_bufsize=50000 / ip_ratio=1.40 / pb_ratio=1.30 / aq=1:0.80
Язык : German
Default : Да
Forced : Нет
Аудио #1
Идентификатор : 2
Формат : AC-3
Формат/Информация : Audio Coding 3
Расширение режима : CM (complete main)
Параметр Endianness формата : Big
Идентификатор кодека : A_AC3
Продолжительность : 1 ч. 28 м.
Вид битрейта : Постоянный
Битрейт : 320 Кбит/сек
Каналы : 2 канала
Расположение каналов : Front: L R
Частота : 48,0 КГц
Битовая глубина : 16 бит
Метод сжатия : С потерями
Размер потока : 204 Мбайт (2%)
Заголовок : AC3 2.0 / 320 kbps / Dub - Мосфильм
Язык : Russian
Default : Да
Forced : Нет
Аудио #2
Идентификатор : 3
Формат : DTS
Формат/Информация : Digital Theater Systems
Идентификатор кодека : A_DTS
Продолжительность : 1 ч. 28 м.
Вид битрейта : Постоянный
Битрейт : 1510 Кбит/сек
Каналы : 6 каналов
Расположение каналов : Front: L C R, Side: L R, LFE
Частота : 48,0 КГц
Битовая глубина : 16 бит
Метод сжатия : С потерями
Размер потока : 960 Мбайт (9%)
Заголовок : DTS 5.1 / 1536 kbps / MVO - CP Digital
Язык : Russian
Default : Нет
Forced : Нет
Аудио #3
Идентификатор : 4
Формат : DTS
Формат/Информация : Digital Theater Systems
Идентификатор кодека : A_DTS
Продолжительность : 1 ч. 28 м.
Вид битрейта : Постоянный
Битрейт : 1510 Кбит/сек
Каналы : 6 каналов
Расположение каналов : Front: L C R, Side: L R, LFE
Частота : 48,0 КГц
Битовая глубина : 16 бит
Метод сжатия : С потерями
Размер потока : 960 Мбайт (9%)
Заголовок : DTS 5.1 / 1536 kbps / AVO - Ю. Сербин
Язык : Russian
Default : Нет
Forced : Нет
Аудио #4
Идентификатор : 5
Формат : DTS
Формат/Информация : Digital Theater Systems
Идентификатор кодека : A_DTS
Продолжительность : 1 ч. 28 м.
Вид битрейта : Постоянный
Битрейт : 755 Кбит/сек
Каналы : 6 каналов
Расположение каналов : Front: L C R, Side: L R, LFE
Частота : 48,0 КГц
Битовая глубина : 24 бит
Метод сжатия : С потерями
Размер потока : 480 Мбайт (4%)
Заголовок : DTS 5.1 / 768 kbps / AVO - Лектор
Язык : Russian
Default : Нет
Forced : Нет
Аудио #5
Идентификатор : 6
Формат : AC-3
Формат/Информация : Audio Coding 3
Расширение режима : CM (complete main)
Параметр Endianness формата : Big
Идентификатор кодека : A_AC3
Продолжительность : 1 ч. 28 м.
Вид битрейта : Постоянный
Битрейт : 640 Кбит/сек
Каналы : 6 каналов
Расположение каналов : Front: L C R, Side: L R, LFE
Частота : 48,0 КГц
Битовая глубина : 16 бит
Метод сжатия : С потерями
Размер потока : 407 Мбайт (4%)
Заголовок : AC3 5.1 / 640 kbps
Язык : English
Default : Нет
Forced : Нет
Аудио #6
Идентификатор : 7
Формат : AC-3
Формат/Информация : Audio Coding 3
Расширение режима : CM (complete main)
Параметр Endianness формата : Big
Идентификатор кодека : A_AC3
Продолжительность : 1 ч. 28 м.
Вид битрейта : Постоянный
Битрейт : 640 Кбит/сек
Каналы : 6 каналов
Расположение каналов : Front: L C R, Side: L R, LFE
Частота : 48,0 КГц
Битовая глубина : 16 бит
Метод сжатия : С потерями
Размер потока : 407 Мбайт (4%)
Заголовок : AC3 5.1 / 640 kbps / Original
Язык : German
Default : Нет
Forced : Нет
Аудио #7
Идентификатор : 8
Формат : AC-3
Формат/Информация : Audio Coding 3
Расширение режима : CM (complete main)
Параметр Endianness формата : Big
Идентификатор кодека : A_AC3
Продолжительность : 1 ч. 28 м.
Вид битрейта : Постоянный
Битрейт : 224 Кбит/сек
Каналы : 2 канала
Расположение каналов : Front: L R
Частота : 48,0 КГц
Битовая глубина : 16 бит
Метод сжатия : С потерями
Размер потока : 142 Мбайт (1%)
Заголовок : Сommentary by Til Schweiger, Jan-Josef Liefers & Moritz Bleibtreu
Язык : German
Default : Нет
Forced : Нет
Аудио #8
Идентификатор : 9
Формат : AC-3
Формат/Информация : Audio Coding 3
Расширение режима : CM (complete main)
Параметр Endianness формата : Big
Идентификатор кодека : A_AC3
Продолжительность : 1 ч. 28 м.
Вид битрейта : Постоянный
Битрейт : 224 Кбит/сек
Каналы : 2 канала
Расположение каналов : Front: L R
Частота : 48,0 КГц
Битовая глубина : 16 бит
Метод сжатия : С потерями
Размер потока : 142 Мбайт (1%)
Заголовок : Сommentary by Regisseur Thomas Jahn
Язык : German
Default : Нет
Forced : Нет
Текст #1
Идентификатор : 10
Формат : UTF-8
Идентификатор кодека : S_TEXT/UTF8
Идентификатор кодека/Информация : UTF-8 Plain Text
Заголовок : CP Digital
Язык : Russian
Default : Нет
Forced : Нет
Текст #2
Идентификатор : 11
Формат : UTF-8
Идентификатор кодека : S_TEXT/UTF8
Идентификатор кодека/Информация : UTF-8 Plain Text
Заголовок : Tivionika
Язык : Russian
Default : Нет
Forced : Нет
Текст #3
Идентификатор : 12
Формат : UTF-8
Идентификатор кодека : S_TEXT/UTF8
Идентификатор кодека/Информация : UTF-8 Plain Text
Язык : English
Default : Нет
Forced : Нет
Текст #4
Идентификатор : 13
Формат : UTF-8
Идентификатор кодека : S_TEXT/UTF8
Идентификатор кодека/Информация : UTF-8 Plain Text
Язык : German
Default : Нет
Forced : Нет
Меню
00:00:00.000 : :00:00:00.000
00:07:58.395 : :00:07:58.395
00:15:45.778 : :00:15:45.778
00:20:59.633 : :00:20:59.633
00:26:37.513 : :00:26:37.513
00:32:24.401 : :00:32:24.401
00:39:46.384 : :00:39:46.384
00:47:04.613 : :00:47:04.613
00:54:11.832 : :00:54:11.832
01:02:44.844 : :01:02:44.844
01:11:54.060 : :01:11:54.060
01:19:49.410 : :01:19:49.410

Знаете ли вы, что...

  • Название «Knockin` On Heaven`s Door» было позаимствовано у песни Боба Дилана. Она же стала заглавной композицией фильма.
  • Имена двух главных персонажей, Мартин Брест и Руди Вурлицер, были даны в честь знаменитого режиссера («Запах женщины» 1992, «Знакомьтесь, Джо Блэк» 1998) и несколько менее знаменитого сценариста («Пэт Гэрретт и Билли Кид» 1973, «Маленький Будда» 1993) соответственно.
  • На девятой минуте фильма два бандита перегоняют машину из одного города в другой. По дороге один из них (Абдулл) хочет занять место водителя. Второй (Хенк) сопротивляется, тогда Абдулл достаёт оружие. Пока он не вытащил пушку, очки у человека за рулём матовые, а когда приставляет к виску — очки уже глянцевые, да ещё в них отражается съёмочная бригада и камера.
  • На семьдесят второй минуте, в борделе, Абдулл и Хенк докладывают Фрэнки, что оба беглеца находятся тут же, когда Хенк говорит Фрэнки «Они тут», внизу кадра очень хорошо видно микрофон, который держит один из членов съемочной группы.
  • Несколькими секундами позже, там же, когда Руди отдыхает с двумя девушками, камера вращается и в кадр по очереди попадают члены съемочной бригады: ноги в ботинках и джинсах, потом снова чьи-то ноги в джинсах.
  • На 55 минуте, когда Мартин и Руди рассчитываются в турецком ресторане, они кладут на прилавок одну пачку денег. Повар берёт эту пачку в руки, но уже в следующем кадре деньги снова лежат на прилавке. Затем пачка снова чудом оказывается в руках повара.
  • На 13-той минуте, когда Мартин макает палец в соль, выпивает текилу и закусывает лимоном, соль остаётся долго над верхней губой, несколько кадров, даже после выкуривания сигареты, а потом бесследно исчезает.
Скриншоты:


Время раздачи: 24/7 (до 10 скачавших)

[Цитировать]



Показать сообщения:    

Текущее время: 10-Дек 02:13

Часовой пояс: UTC + 3


Вы не можете начинать темы
Вы не можете отвечать на сообщения
Вы не можете редактировать свои сообщения
Вы не можете удалять свои сообщения
Вы не можете голосовать в опросах
Вы не можете прикреплять файлы к сообщениям
Вы не можете скачивать файлы

!ВНИМАНИЕ!
Сайт не предоставляет электронные версии произведений, а занимается лишь коллекционированием и каталогизацией ссылок, присылаемых и публикуемых на форуме нашими читателями. Если вы являетесь правообладателем какого-либо представленного материала и не желаете, чтобы ссылка на него находилась в нашем каталоге, свяжитесь с нами, и мы незамедлительно удалим ее. Файлы для обмена на трекере предоставлены пользователями сайта, и администрация не несет ответственности за их содержание. Просьба не заливать файлы, защищенные авторскими правами, а также файлы нелегального содержания!