[ Сегодня идет свободное скачивание без начисления Download ]


Статистика раздачи
Нет
 
   
 
Top  
 
 
-Любовный переплет / The Oranges (2011) BDRip- Русское название: Любовный переплет
Оригинальное название: The Oranges
Год выпуска: 2011
Производство: США
Жанр: Драма, Комедия, Мелодрама
Перевод: Дублированный (Лицензия)
Язык субтитров: Русский, Английский
Вид субтитров: Вшитые отключаемые
Режиссер: Джулиан Фарино
Актеры: Хью Лори, Кэтрин Кинер, Оливер Платт, Эллисон Дженни, Алиа Шокат, Адам Броди, Лейтон Мистер, Бойд Холбрук, Тим Гини, Лукас Папаэлиас
Описание фильма:
Семьи Острофф и Уоллинг дружат между собой и живут по соседству, на Орандж Драйв, как раз напротив. Дочь-транжирка, Нина Острофф, возвращается домой на День Благодарения, после пятилетнего отсутствия, недавно порвав с женихом. Вместо того, чтобы заинтересоваться успешным сыном своих соседей, Тоби Уоллингом, что устроило бы обе семьи, она обращает внимание на его отца и лучшего друга своих родителей, Дэвида Уоллинга. Когда романтические отношения между Ниной и Дэвидом становится невозможно игнорировать, жизнь обеих семей приходит в полный беспорядок.

Дата мировой премьеры: 10 сентября 2011
Дата российской премьеры: 13 декабря 2012, «Централ Партнершип»
Дата выхода DVD/Blu-Ray релиза: 1 апреля 2013, «Новый Диск»
Продолжительность: 01:30:32
Качество видео: BDRip [720p]
Видеокодек: MPEG-4 AVC/H.264
Видео: 1280x720, ~5374 Кбит/с
Аудио 1: DTS, 6 ch, 1510 Кбит/с (Дублированный, Русский)
Аудио 2: DTS, 6 ch, 1510 Кбит/с (Оригинал, Английский)

MediaInfo:

Общее
Уникальный идентификатор : 199778754648863340119781262822248196929 (0x964BFD13C797CD8E93DCCFB5BF4EAB41)
Полное имя : Ljubovnyj.pereplet.2011.BDRip.720p.mkv
Формат : Matroska
Версия формата : Version 2
Размер файла : 5,31 Гбайт
Продолжительность : 1 ч. 30 м.
Общий поток : 8396 Кбит/сек
Название фильма : IRONCLUB
Дата кодирования : UTC 2013-03-26 17:02:58
Программа кодирования : mkvmerge v5.2.0 ('I can't explain') built on Dec 18 2011 18:12:03
Библиотека кодирования : libebml v1.2.3 + libmatroska v1.3.0
Видео
Идентификатор : 1
Формат : AVC
Формат/Информация : Advanced Video Codec
Профиль формата : High@L4.1
Параметр CABAC формата : Да
Параметр ReFrames формата : 5 кадров
Идентификатор кодека : V_MPEG4/ISO/AVC
Продолжительность : 1 ч. 30 м.
Битрейт : 5374 Кбит/сек
Ширина : 1280 пикселей
Высота : 720 пикселей
Соотношение сторон : 16:9
Частота кадров : 23,976 кадра/сек
Цветовое пространство : YUV
Субдискретизация насыщенности : 4:2:0
Битовая глубина : 8 бит
Тип развёртки : Прогрессивная
Бит/(Пиксели*Кадры) : 0.243
Размер потока : 3,29 Гбайт (62%)
Заголовок : The Oranges 2011 720p BluRay x264-PFa
Библиотека кодирования : x264 core 129 r2245 bc13772
Настройки программы : cabac=1 / ref=5 / deblock=1:0:0 / analyse=0x3:0x133 / me=umh / subme=8 / psy=1 / psy_rd=1.00:0.00 / mixed_ref=1 / me_range=16 / chroma_me=1 / trellis=1 / 8x8dct=1 / cqm=0 / deadzone=21,11 / fast_pskip=0 / chroma_qp_offset=-2 / threads=12 / lookahead_threads=2 / sliced_threads=0 / nr=0 / decimate=1 / interlaced=0 / bluray_compat=0 / constrained_intra=0 / bframes=3 / b_pyramid=2 / b_adapt=1 / b_bias=0 / direct=1 / weightb=1 / open_gop=0 / weightp=2 / keyint=250 / keyint_min=23 / scenecut=40 / intra_refresh=0 / rc_lookahead=40 / rc=2pass / mbtree=1 / bitrate=5374 / ratetol=1.0 / qcomp=0.60 / qpmin=0 / qpmax=69 / qpstep=4 / cplxblur=20.0 / qblur=0.5 / ip_ratio=1.40 / aq=1:1.00
Язык : English
Default : Да
Forced : Да
Аудио #1
Идентификатор : 2
Формат : DTS
Формат/Информация : Digital Theater Systems
Идентификатор кодека : A_DTS
Продолжительность : 1 ч. 30 м.
Вид битрейта : Постоянный
Битрейт : 1510 Кбит/сек
Каналы : 6 каналов
Расположение каналов : Front: L C R, Side: L R, LFE
Частота : 48,0 КГц
Битовая глубина : 24 бит
Метод сжатия : С потерями
Размер потока : 978 Мбайт (18%)
Заголовок : DTS 5.1 @ 1536 kbps - Dub, R5
Язык : Russian
Default : Да
Forced : Да
Аудио #2
Идентификатор : 3
Формат : DTS
Формат/Информация : Digital Theater Systems
Идентификатор кодека : A_DTS
Продолжительность : 1 ч. 30 м.
Вид битрейта : Постоянный
Битрейт : 1510 Кбит/сек
Каналы : 6 каналов
Расположение каналов : Front: L C R, Side: L R, LFE
Частота : 48,0 КГц
Битовая глубина : 16 бит
Метод сжатия : С потерями
Размер потока : 978 Мбайт (18%)
Заголовок : DTS 5.1 @ 1536 kbps
Язык : English
Default : Нет
Forced : Нет
Текст #1
Идентификатор : 4
Формат : UTF-8
Идентификатор кодека : S_TEXT/UTF8
Идентификатор кодека/Информация : UTF-8 Plain Text
Заголовок : R5
Язык : Russian
Default : Нет
Forced : Нет
Текст #2
Идентификатор : 5
Формат : UTF-8
Идентификатор кодека : S_TEXT/UTF8
Идентификатор кодека/Информация : UTF-8 Plain Text
Язык : English
Default : Нет
Forced : Нет
Скриншоты:


Время раздачи: Обычно с 19:00 до 00:00

[Цитировать]



Показать сообщения:    

Текущее время: 10-Дек 15:47

Часовой пояс: UTC + 3


Вы не можете начинать темы
Вы не можете отвечать на сообщения
Вы не можете редактировать свои сообщения
Вы не можете удалять свои сообщения
Вы не можете голосовать в опросах
Вы не можете прикреплять файлы к сообщениям
Вы не можете скачивать файлы

!ВНИМАНИЕ!
Сайт не предоставляет электронные версии произведений, а занимается лишь коллекционированием и каталогизацией ссылок, присылаемых и публикуемых на форуме нашими читателями. Если вы являетесь правообладателем какого-либо представленного материала и не желаете, чтобы ссылка на него находилась в нашем каталоге, свяжитесь с нами, и мы незамедлительно удалим ее. Файлы для обмена на трекере предоставлены пользователями сайта, и администрация не несет ответственности за их содержание. Просьба не заливать файлы, защищенные авторскими правами, а также файлы нелегального содержания!