[ Сегодня идет свободное скачивание без начисления Download ]


Статистика раздачи
Нет
 
   
 
 
 
-Сезон убийц / Killing Season (2013) HDRip- Год выпуска: 2013
Производство: Бельгия, США
Жанр: Боевик, Триллер, Драма
Язык: Английский
Перевод: Отсутствует
Субтитры: Отсутствуют
Дата мировой премьеры: 29 июня 2013
Дата российской премьеры: Октябрь 2013, «Top Film Distribution»
Режиссер: Марк Стивен Джонсон
Продюсер: Пол Брюлс, Эд Кэйтелл III, Энтони Рулен
Актеры: Джон Траволта, Роберт Де Ниро, Майло Вентимилья, Элизабет Олин, Диана Любенова, Стефан Штерев
Описание фильма:
История о ветеранах войны в Боснии — американце и сербе, которые, спустя много лет после событий в Европе, устраивают свою личную Третью мировую войну, пытаясь свести счеты.

Продолжительность: 01:30:44
Качество видео: HDRip
Видеокодек: Xvid
Битрейт видео: ~1729 Кбит/сек
Размер кадра: 720 х 304
Аудиокодек: AC3 5.1
Битрейт аудио: 384 Кбит/сек
Сэмпл: Скачать

Дополнительная информация:

Роберт Де Ниро заменил в проекте Николаса Кейджа.
Фильм должен был ставить Джон МакТирнан, но после того, как режиссёра посадили в тюрьму, на его место пришёл Марк Стивен Джонсон.

MediaInfo:

Формат : AVI
Формат/Информация : Audio Video Interleave
Размер файла : 1,34 Гбайт
Продолжительность : 1 ч. 30 м.
Общий поток : 2121 Кбит/сек
Видео
Идентификатор : 0
Формат : MPEG-4 Visual
Профиль формата : Advanced Simple@L5
Параметр BVOP формата : 2
Параметр QPel формата : Нет
Параметр GMC формата : Без точки перехода
Параметр матрицы формата : Default (H.263)
Идентификатор кодека : XVID
Идентификатор кодека/Подсказка : XviD
Продолжительность : 1 ч. 30 м.
Битрейт : 1729 Кбит/сек
Ширина : 720 пикселей
Высота : 304 пикселя
Соотношение сторон : 2,35:1
Частота кадров : 23,976 кадра/сек
Цветовое пространство : YUV
Субдискретизация насыщенности : 4:2:0
Битовая глубина : 8 бит
Тип развёртки : Прогрессивная
Метод сжатия : С потерями
Бит/(Пиксели*Кадры) : 0.330
Размер потока : 1,10 Гбайт (82%)
Библиотека кодирования : XviD 1.2.1 (UTC 2008-12-04)
Аудио
Идентификатор : 1
Формат : AC-3
Формат/Информация : Audio Coding 3
Расширение режима : CM (complete main)
Параметр Endianness формата : Big
Идентификатор кодека : 2000
Продолжительность : 1 ч. 30 м.
Вид битрейта : Постоянный
Битрейт : 384 Кбит/сек
Каналы : 6 каналов
Расположение каналов : Front: L C R, Side: L R, LFE
Частота : 48,0 КГц
Битовая глубина : 16 бит
Метод сжатия : С потерями
Размер потока : 249 Мбайт (18%)
Выравнивание : Соединение по промежуткам
Продолжительность промежутка : 64 мс. (1,53 видеокадра)
Время предзагрузки промежутка : 192 мс.
Заголовок : killing.season.2013.720p.web-dl.h264-publichd - [0] English_new
Скриншоты:

с 10:00 до 18:30 (до 3-х скачавших)

[Цитировать]



Показать сообщения:    

Текущее время: 07-Дек 13:39

Часовой пояс: UTC + 3


Вы не можете начинать темы
Вы не можете отвечать на сообщения
Вы не можете редактировать свои сообщения
Вы не можете удалять свои сообщения
Вы не можете голосовать в опросах
Вы не можете прикреплять файлы к сообщениям
Вы не можете скачивать файлы

!ВНИМАНИЕ!
Сайт не предоставляет электронные версии произведений, а занимается лишь коллекционированием и каталогизацией ссылок, присылаемых и публикуемых на форуме нашими читателями. Если вы являетесь правообладателем какого-либо представленного материала и не желаете, чтобы ссылка на него находилась в нашем каталоге, свяжитесь с нами, и мы незамедлительно удалим ее. Файлы для обмена на трекере предоставлены пользователями сайта, и администрация не несет ответственности за их содержание. Просьба не заливать файлы, защищенные авторскими правами, а также файлы нелегального содержания!