[ Сегодня идет свободное скачивание без начисления Download ]


Статистика раздачи
Нет
 
   
 
Top  
 
 
-Магнолия / Magnolia (1999) BDRip- Год выпуска: 1999
Жанр: Драма
Производство: США - New Line Cinema
Описание фильма:
Эта история произошла в долине Сан-Фернандо в дождливый день, когда на небе не было ни облачка. Благодаря вмешательству высших сил, а также нагромождению совпадений, случайностей, действий разных людей, их жизни и судьбы переплетутся и проникнут друг в друга в течение одного дня, финал которого будет незабываемым.
Режиссер: Пол Томас Андерсон
Актеры: Том Круз, Филип Бейкер Холл, Филип Сеймур Хоффман, Джулианна Мур, Уильям Х. Мэйси, Джон Си Райли, Джейсон Робардс, Альфред Молина, Мелора Уолтерс, Майкл Боуэн
Продолжительность: 03:08:40
Качество видео: BDRip
Перевод: Многоголосый закадровый
Вид субтитров: Вшитые, отключаемые
Язык субтитров: Русский, английский

Дата мировой премьеры: 8 декабря 1999
Дата российской премьеры: 21 апреля 2000
Дата выхода DVD релиза: 15 мая 2008
Видеокодек: MPEG-4 AVC/H.264
Битрейт видео: ~9474 Kbps
Размер кадра: 1920x800
Аудио:
Аудио 1: |Русский| AC-3, 6 ch, 448 Kbps |Многоголосый закадровый, Киномания|
Аудио 2: |Русский| AC-3, 6 ch, 448 Kbps |Многоголосый закадровый, Lizard|
Аудио 3: |Русский| AC-3, 2 ch, 320 Kbps |Многоголосый закадровый, РТР
Аудио 4: |Английский| AC-3, 6 ch, 640 Kbps

MediaInfo

General
Unique ID : 243568553992950265351900307921150811174 (0xB73D98DFC7AFCB968B1B3AA970661C26)
Complete name : F:\Movies\Магнолия.mkv
Format : Matroska
Format version : Version 4 / Version 2
File size : 15.2 GiB
Duration : 3h 8mn
Overall bit rate : 11.6 Mbps
Encoded by : @lolkin@
Encoded date : UTC 2013-07-11 12:02:08
Writing application : mkvmerge v6.3.0 ('You can't stop me!') built on Jun 28 2013 20:09:41
Writing library : libebml v1.3.0 + libmatroska v1.4.0
TITLE : Magnolia (1999)
DATE_RELEASED : 18th February 2010
COMMENT : BDRip
Attachment : Yes
Video
ID : 1
Format : AVC
Format/Info : Advanced Video Codec
Format profile : [url=mailto:[email protected]][email protected][/url]
Format settings, CABAC : Yes
Format settings, ReFrames : 4 frames
Codec ID : V_MPEG4/ISO/AVC
Duration : 3h 8mn
Bit rate : 9 474 Kbps
Width : 1 920 pixels
Height : 800 pixels
Display aspect ratio : 2.40:1
Frame rate mode : Constant
Frame rate : 23.976 fps
Color space : YUV
Chroma subsampling : 4:2:0
Bit depth : 8 bits
Scan type : Progressive
Bits/(Pixel*Frame) : 0.257
Stream size : 12.5 GiB (82%)
Title : Magnolia
Language : English
Default : Yes
Forced : No
Matrix coefficients : BT.709
Audio #1
ID : 2
Format : AC-3
Format/Info : Audio Coding 3
Mode extension : CM (complete main)
Format settings, Endianness : Big
Codec ID : A_AC3
Duration : 3h 8mn
Bit rate mode : Constant
Bit rate : 448 Kbps
Channel(s) : 6 channels
Channel positions : Front: L C R, Side: L R, LFE
Sampling rate : 48.0 KHz
Bit depth : 16 bits
Compression mode : Lossy
Stream size : 605 MiB (4%)
Title : mvo |Kinomania|
Language : Russian
Default : No
Forced : No
Audio #2
ID : 3
Format : AC-3
Format/Info : Audio Coding 3
Mode extension : CM (complete main)
Format settings, Endianness : Big
Codec ID : A_AC3
Duration : 3h 8mn
Bit rate mode : Constant
Bit rate : 448 Kbps
Channel(s) : 6 channels
Channel positions : Front: L C R, Side: L R, LFE
Sampling rate : 48.0 KHz
Bit depth : 16 bits
Compression mode : Lossy
Stream size : 605 MiB (4%)
Title : mvo |Lizard|
Language : Russian
Default : No
Forced : No
Audio #3
ID : 4
Format : AC-3
Format/Info : Audio Coding 3
Mode extension : CM (complete main)
Format settings, Endianness : Big
Codec ID : A_AC3
Duration : 3h 8mn
Bit rate mode : Constant
Bit rate : 320 Kbps
Channel(s) : 2 channels
Channel positions : Front: L R
Sampling rate : 48.0 KHz
Bit depth : 16 bits
Compression mode : Lossy
Stream size : 432 MiB (3%)
Title : mvo |PTP|
Language : Russian
Default : No
Forced : No
Audio #4
ID : 5
Format : AC-3
Format/Info : Audio Coding 3
Mode extension : CM (complete main)
Format settings, Endianness : Big
Codec ID : A_AC3
Duration : 3h 8mn
Bit rate mode : Constant
Bit rate : 640 Kbps
Channel(s) : 6 channels
Channel positions : Front: L C R, Side: L R, LFE
Sampling rate : 48.0 KHz
Bit depth : 16 bits
Compression mode : Lossy
Stream size : 864 MiB (6%)
Title : eng
Language : English
Default : No
Forced : No
Text #1
ID : 6
Format : UTF-8
Codec ID : S_TEXT/UTF8
Codec ID/Info : UTF-8 Plain Text
Title : rus
Language : Russian
Default : No
Forced : No
Text #2
ID : 7
Format : UTF-8
Codec ID : S_TEXT/UTF8
Codec ID/Info : UTF-8 Plain Text
Title : eng
Language : English
Default : No
Forced : No
Menu
00:00:00.000 : en:Prologue
00:06:12.703 : en:One
00:13:00.815 : en:82% chance of rain
00:43:22.371 : en:Light showers
00:56:30.276 : en:Momentum
01:17:18.222 : en:Carmen
01:28:16.165 : en:Family picnic
01:41:53.016 : en:Meltdown
02:02:59.647 : en:Wise up
02:36:52.161 : en:The kiss
02:45:23.501 : en:Rain
02:52:22.416 : en:So now then
Скриншоты:

Не забудь сказать - Всем приятного просмотра!!!Время раздачи: c 22:00 до 9:00

[Цитировать]



Показать сообщения:    

Текущее время: 06-Дек 20:58

Часовой пояс: UTC + 3


Вы не можете начинать темы
Вы не можете отвечать на сообщения
Вы не можете редактировать свои сообщения
Вы не можете удалять свои сообщения
Вы не можете голосовать в опросах
Вы не можете прикреплять файлы к сообщениям
Вы не можете скачивать файлы

!ВНИМАНИЕ!
Сайт не предоставляет электронные версии произведений, а занимается лишь коллекционированием и каталогизацией ссылок, присылаемых и публикуемых на форуме нашими читателями. Если вы являетесь правообладателем какого-либо представленного материала и не желаете, чтобы ссылка на него находилась в нашем каталоге, свяжитесь с нами, и мы незамедлительно удалим ее. Файлы для обмена на трекере предоставлены пользователями сайта, и администрация не несет ответственности за их содержание. Просьба не заливать файлы, защищенные авторскими правами, а также файлы нелегального содержания!