[ Сегодня идет свободное скачивание без начисления Download ]


Статистика раздачи
Нет
 
   
 
Top  
 
 
-Обман / Deception (2013) WEB-DLRip- Год выпуска: 2013
Жанр: Боевик
Производство: США
Перевод: Одноголосый закадровый, любительский (dimetriu$$$)
Режиссер: Брайан Тренчард-Смит
Актеры: Кьюба Гудинг мл., Эммануэль Вожье, Эверт МакКуин, Ти Смит, Джефф Гэннон, Брэд МакМюррей, Гулливер Пейдж, Рэймонд Мэсси, Шон Эдвард Фрейзер, Трой МакКайндер
Описание фильма:
Овдовевшая девушка-репортер прибегает к помощи федерального агента, чтобы расследовать тайны ее покойного мужа, но вместе с ним она становится мишенью неизвестных злоумышленников…

Дата мировой премьеры: 17 июля 2013
Продолжительность: 01:32:01
Качество видео: WEB-DLRip
Видеокодек: Xvid
Битрейт видео: ~1729 Kbps
Размер кадра: 720x400, 23.976 fps
Аудиокодек: AC3, 2 ch
Битрейт аудио: 384 Kbps / 48000 Hz-Сэмпл: Скачать

MediaInfo:

Общее
Полное имя : C:\Users\я\Documents\Торент\Deception.2013.L1.WEB-DLRip.avi
Формат : AVI
Формат/Информация : Audio Video Interleave
Размер файла : 1,36 Гбайт
Продолжительность : 1 ч. 32 м.
Общий поток : 2123 Кбит/сек
Название фильма : Deception.2013.L1.WEB-DLRip.avi
Режиссёр : dimetriusss
Жанр : Action/Crime
Программа кодирования : VirtualDubMod 1.5.10.2 (build 2542/release)
Формат оригинала/Имя : Movie
Видео
Идентификатор : 0
Формат : MPEG-4 Visual
Профиль формата : Advanced [email protected]
Параметр BVOP формата : 2
Параметр QPel формата : Нет
Параметр GMC формата : Без точки перехода
Параметр матрицы формата : Выборочная
Идентификатор кодека : XVID
Идентификатор кодека/Подсказка : XviD
Продолжительность : 1 ч. 32 м.
Битрейт : 1729 Кбит/сек
Ширина : 720 пикселей
Высота : 400 пикселей
Соотношение сторон : 16:9
Частота кадров : 23,976 кадра/сек
Цветовое пространство : YUV
Субдискретизация насыщенности : 4:2:0
Битовая глубина : 8 бит
Тип развёртки : Прогрессивная
Метод сжатия : С потерями
Бит/(Пиксели*Кадры) : 0.250
Размер потока : 1,11 Гбайт (81%)
Библиотека кодирования : XviD 65
Аудио
Идентификатор : 1
Формат : AC-3
Формат/Информация : Audio Coding 3
Расширение режима : CM (complete main)
Параметр Endianness формата : Big
Идентификатор кодека : 2000
Продолжительность : 1 ч. 32 м.
Вид битрейта : Постоянный
Битрейт : 384 Кбит/сек
Каналы : 2 канала
Расположение каналов : Front: L R
Частота : 48,0 КГц
Битовая глубина : 16 бит
Метод сжатия : С потерями
Размер потока : 253 Мбайт (18%)
Выравнивание : Разделение по промежуткам
Продолжительность промежутка : 42 мс. (1,00 видеокадр)
Время предзагрузки промежутка : 500 мс.
-Скриншоты: -Время раздачи: 24/7 По возможности

[Цитировать]

Топик был перенесен из форума Новинки кинопроката в форум Боевик
Henkok



Показать сообщения:    

Текущее время: 06-Дек 17:10

Часовой пояс: UTC + 3


Вы не можете начинать темы
Вы не можете отвечать на сообщения
Вы не можете редактировать свои сообщения
Вы не можете удалять свои сообщения
Вы не можете голосовать в опросах
Вы не можете прикреплять файлы к сообщениям
Вы не можете скачивать файлы

!ВНИМАНИЕ!
Сайт не предоставляет электронные версии произведений, а занимается лишь коллекционированием и каталогизацией ссылок, присылаемых и публикуемых на форуме нашими читателями. Если вы являетесь правообладателем какого-либо представленного материала и не желаете, чтобы ссылка на него находилась в нашем каталоге, свяжитесь с нами, и мы незамедлительно удалим ее. Файлы для обмена на трекере предоставлены пользователями сайта, и администрация не несет ответственности за их содержание. Просьба не заливать файлы, защищенные авторскими правами, а также файлы нелегального содержания!