[ Сегодня идет свободное скачивание без начисления Download ]


Статистика раздачи
Нет
 
   
 
Top  
 
 
-К чуду / To the Wonder (2012) BDRip- Год выпуска: 2012
Производство: США - Redbud Pictures
Жанр: Драма, Мелодрама
Перевод: Двуголосый закадровый, любительский
Озвучка / Автор перевода: sweet couple
Субтитры: Вшитые отключаемые
Язык субтитров: Русский, английский
Дата мировой премьеры: 2 сентября 2012
Дата российской премьеры: 6 июня 2013, «West»
Режиссер: Терренс Малик / Terrence Malick
Актеры: Бен Аффлек, Ольга Куриленко, Рэйчел МакАдамс, Хавьер Бардем, Татьяна Чилин, Ромина Монделло, Тони О’Ганс, Чарльз Бэйкер, Маршалл Белл, Кэйси Уильямс
Описание фильма:
После посещения Мон-Сент-Мишеля Марина и Нил возвращаются в Оклахому, где начинаются проблемы. Нил заводит роман с Джейн, а Марина изменяет мужу с Чарли. Оба — и Нил, и Марина — просят наставлений у отца Куинтаны, священника, который сам страдает от невозможности жить собственной жизнью из-за постоянного погружения в жизни своих прихожан…

Качество видео: BDRip 1080р
Видеокодек: MPEG-4 AVC/H.264
Видео: H264, 14.5 Мбит/с, 1920x816, 23.976 кадр/с
Аудио #1: Русский: AC3, 5.1, 384 Кбит/с, 48kHz, 16 bit
Аудио #2: Английский: DTS, 5.1, 768 Кбит/с, 48 kHz, 24 bit
Сохранены оригинальные чаптеры как на Blu-Ray

MediaInfo:

Общее
Уникальный идентификатор : 172175222303710332189280835968792726632 (0x8187BDDB91F4D347A81088EF4A5F0C68)
Полное имя : D:\Video\To.the.Wonder.2012.L2.BDRip.1080p.mkv
Формат : Matroska
Версия формата : Version 4 / Version 2
Размер файла : 12,3 Гбайт
Продолжительность : 1 ч. 52 м.
Общий поток : 15,6 Мбит/сек
Дата кодирования : UTC 2013-07-01 15:46:35
Программа кодирования : mkvmerge v6.2.0 ('Promised Land') built on Apr 28 2013 12:22:01
Библиотека кодирования : libebml v1.3.0 + libmatroska v1.4.0
Видео
Идентификатор : 1
Формат : AVC
Формат/Информация : Advanced Video Codec
Профиль формата : [email protected]
Параметр CABAC формата : Да
Параметр ReFrames формата : 5 кадров
Идентификатор кодека : V_MPEG4/ISO/AVC
Продолжительность : 1 ч. 52 м.
Битрейт : 14,5 Мбит/сек
Ширина : 1920 пикселей
Высота : 816 пикселей
Соотношение сторон : 2,35:1
Частота кадров : 23,976 кадра/сек
Цветовое пространство : YUV
Субдискретизация насыщенности : 4:2:0
Битовая глубина : 8 бит
Тип развёртки : Прогрессивная
Бит/(Пиксели*Кадры) : 0.386
Размер потока : 11,2 Гбайт (91%)
Библиотека кодирования : x264 core 130 r2273 b3065e6
Настройки программы : cabac=1 / ref=5 / deblock=1:-3:-3 / analyse=0x3:0x133 / me=umh / subme=11 / psy=1 / psy_rd=1.05:0.10 / mixed_ref=1 / me_range=64 / chroma_me=1 / trellis=2 / 8x8dct=1 / cqm=0 / deadzone=21,11 / fast_pskip=0 / chroma_qp_offset=-3 / threads=12 / lookahead_threads=2 / sliced_threads=0 / nr=0 / decimate=1 / interlaced=0 / bluray_compat=0 / constrained_intra=0 / bframes=8 / b_pyramid=2 / b_adapt=2 / b_bias=0 / direct=3 / weightb=1 / open_gop=0 / weightp=2 / keyint=250 / keyint_min=23 / scenecut=40 / intra_refresh=0 / rc_lookahead=60 / rc=2pass / mbtree=1 / bitrate=14488 / ratetol=1.0 / qcomp=0.60 / qpmin=0 / qpmax=69 / qpstep=4 / cplxblur=20.0 / qblur=0.5 / vbv_maxrate=40000 / vbv_bufsize=30000 / nal_hrd=none / ip_ratio=1.40 / aq=1:0.90
Язык : English
Default : Да
Forced : Нет
Аудио #1
Идентификатор : 2
Формат : AC-3
Формат/Информация : Audio Coding 3
Расширение режима : CM (complete main)
Идентификатор кодека : A_AC3
Продолжительность : 1 ч. 52 м.
Вид битрейта : Постоянный
Битрейт : 384 Кбит/сек
Каналы : 6 каналов
Расположение каналов : Front: L C R, Side: L R, LFE
Частота : 48,0 КГц
Битовая глубина : 16 бит
Метод сжатия : С потерями
Задержка видео : 3 с. 930 мс.
Размер потока : 309 Мбайт (2%)
Заголовок : DVO [sweet couple]
Язык : Russian
Default : Да
Forced : Нет
Аудио #2
Идентификатор : 3
Формат : DTS
Формат/Информация : Digital Theater Systems
Идентификатор кодека : A_DTS
Продолжительность : 1 ч. 52 м.
Вид битрейта : Постоянный
Битрейт : 755 Кбит/сек
Каналы : 6 каналов
Расположение каналов : Front: L C R, Side: L R, LFE
Частота : 48,0 КГц
Битовая глубина : 24 бит
Метод сжатия : С потерями
Размер потока : 608 Мбайт (5%)
Язык : English
Default : Нет
Forced : Нет
Текст #1
Идентификатор : 4
Формат : UTF-8
Идентификатор кодека : S_TEXT/UTF8
Идентификатор кодека/Информация : UTF-8 Plain Text
Язык : Russian
Default : Да
Forced : Нет
Текст #2
Идентификатор : 5
Формат : UTF-8
Идентификатор кодека : S_TEXT/UTF8
Идентификатор кодека/Информация : UTF-8 Plain Text
Язык : English
Default : Нет
Forced : Нет
Меню
00:00:00.000 : en:Chapter 1
00:13:28.000 : en:Chapter 2
00:21:31.000 : en:Chapter 3
00:31:09.000 : en:Chapter 4
00:40:54.000 : en:Chapter 5
00:49:49.000 : en:Chapter 6
00:57:30.000 : en:Chapter 7
01:06:32.000 : en:Chapter 8
01:16:02.000 : en:Chapter 9
01:26:37.000 : en:Chapter 10
01:36:57.000 : en:Chapter 11
01:48:30.000 : en:Chapter 12

Рецензия, отзыв о фильме:

Поднимаясь к чуду
Режиссёр Терренс Малик соорудил себе славу этакого отшельника, который очень редко появляется на горизонте с новыми своими фильмами. Ну судите сами: минимальный промежуток между выпусками лент Малика — целых пять лет. Но, видимо, Малик решил что-то изменить, видимо, поймал свою музу и идею, от которых может отталкиваться в сюжетах для новых лент, ведь между премьерами «Древа жизни» и «К чуду» прошло всего-то два года.
Но не только которкий премужток времени и один и тот же режиссёр объединяет эти два фильма: в них один «корень» — раздумья по поводу миссии на земле, обдумывание своего поведения, мысли, которые мы не можем изложить устно, но в наших головах они так или иначе крутятся.
Фильм Терренса Малика «К чуду» почему-то мне показался каким-то «вороватым», в том смысле, что Малик показывает скрытые мысли людей, раскрывая их с помощью голоса за кадром, такие мысли, которые никто бы не хотел, чтобы о них узнали, только ведя беседу с самим собой люди полностью раскованы, раскрыты и признаются себе во всём.
Нет, это, конечно же, не психологический триллер, где нас пытаются погрузить в мрачный мир очередного серийного маньяка-убийцы, это одно общее философское рассуждение о людях, на месте которых могли бы оказаться и мы — простые и незамысловатые, но наши мысли делают нас абсолютно непохожими друг на друга.
Этот фильм задел меня, точнее, как сейчас принято говорить «зацепил». Я словно очутился на месте героя Бена Эффлека, понимал, что он он чувствует и почему не может этого сказать, почему его мысли так влияли на манеру его поведения, почему в той или иной ситуации он поступил вот так, а не иначе. Наверное, это сугубо мужское, я не знаю, как девушки отнеслись к тому, что ощущали и думала героиня Ольги Куриленко или Рэйчел МакАдамс.
Кстати, уроженка Бердянска Ольга Куриленко успела уже сыграть вместе с мегазвёздами Голливуда (Майклом Фассбендером, Томом Крузом и, понятное дело, Беном Эффлеком), что говорит о том, что признание к ней приходит. Доселе я не видел чего-то этакого в ней, скорее из-за придирок, что она является всё же таки соотечественницей, ведь родились мы в одной огромной и дружной стране, но вот «К чуду» её игра мне понравилась. Она не выжимала из себя что-то сверх нормы, не пыталась талдычить, что она безумно талантливая и разнообразная актриса, она была серьёзной, но очень близкой к зрителю.
А Рэйчел МакАдамс и Хавьеру Бардему доказывать ничего не надо было. Сняться в независимом кино у культового режиссёра — это уже признание, это ещё и вызов их таланту и если они себя плохо покажут, то это может негативно статься на их карьере, но МакАдамс с её самой драматической героиней в фильме и Бардему не надо опасаться.
«К чуду» меня заинтересовал. Я не особы любитель авторского артхауса, но здесь таится что-то жизненное, что-то такое, что мы замечаем, но не можем иногда осознать, понять, объяснить. По сравнению с «Древом жизни» «К чуду» меня с первой и по последнюю секунды заинтересовал и словно перенёс вовнутрь той атмосферы, что завораживала при просмотре «К чуду».
10 из 10
Скриншоты:
Время раздачи: с 10:00 до 20:00 (GMT+2) - до 10 скачавшихНе забываем говорить

[Цитировать]

Топик был перенесен из форума Новинки кинопроката (HD Video) в форум Зарубежное кино (HD Video)
Bootch



Показать сообщения:    

Текущее время: 04-Дек 02:59

Часовой пояс: UTC + 3


Вы не можете начинать темы
Вы не можете отвечать на сообщения
Вы не можете редактировать свои сообщения
Вы не можете удалять свои сообщения
Вы не можете голосовать в опросах
Вы не можете прикреплять файлы к сообщениям
Вы не можете скачивать файлы

!ВНИМАНИЕ!
Сайт не предоставляет электронные версии произведений, а занимается лишь коллекционированием и каталогизацией ссылок, присылаемых и публикуемых на форуме нашими читателями. Если вы являетесь правообладателем какого-либо представленного материала и не желаете, чтобы ссылка на него находилась в нашем каталоге, свяжитесь с нами, и мы незамедлительно удалим ее. Файлы для обмена на трекере предоставлены пользователями сайта, и администрация не несет ответственности за их содержание. Просьба не заливать файлы, защищенные авторскими правами, а также файлы нелегального содержания!