[ Сегодня идет свободное скачивание без начисления Download ]


Статистика раздачи
Нет
 
   
 
Top  
 
 
-Проклятие моей матери / The Guilt Trip (2012) BDRip- Год выпуска: 2012
Производство: США - Michaels-Goldwyn, Paramount Pictures, Skydance Productions
Жанр: Комедия, драма
Перевод: Многоголосый закадровый, профессиональный, любительский двуголосый [Twix]
Субтитры: Вшитые отключаемые
Язык субтитров: Английский, румынский, французский, испанский, португальский
Режиссер: Энн Флетчер
Актеры: Барбра Стрейзанд, Сет Роген, Джулин Рени, Забрина Гевара, Джон Фанк, Роберт Кертис-Браун, Кэти Нэджими, Мириам Маргулис, Роуз Абду, Том Вирту
Описание фильма:
Главный герой изобрел новое чистящее средство и просит мать отправиться с ним в рекламную кампанию по стране. Но на самом деле его цель иная — соединить сердца матери и мужчины, в которого она была влюблена в молодости. Мама согласилась по похожей причине — она винит себя в неудачах сына на любовном фронте и берется во время путешествия исправить дело.


Дата мировой премьеры:
19 декабря 2012
Продолжительность: 01:35:37
Качество видео: BDRip 1080p
Видеокодек: MPEG-4 AVC/H.264
Видео: 13.3 Мбит/с, 1920x816, 23.976 кадр/с
Аудио #1: Русский: AC3, 5.1, 384 Кбит/с, 48 kHz, 16 bit - многоголосый закадровый
Аудио #2: Русский: AC3, 5.1, 448бит/с, 48 kHz, 16 bit - двуголосый закадровый
Аудио #3: Английский: DTS, 5.1, 1536 Кбит/с, 48 kHz, 24 bit
Сохранены оригинальные чаптеры как на Blu-Ray

MediaInfo:

Общее
Уникальный идентификатор : 171045244984953071939743974231110739906 (0x80AE1DACAE682ABE8FB945E5EA9267C2)
Полное имя : D:\Video\NewMovies\The.Guilt.Trip.2012.1080p.BluRay.x264.ac3.dts.Rus.Eng.mkv
Формат : Matroska
Версия формата : Version 4 / Version 2
Размер файла : 10,7 Гбайт
Продолжительность : 1 ч. 35 м.
Общий поток : 16,0 Мбит/сек
Название фильма : Release from VarMkn
Дата кодирования : UTC 2013-07-01 19:35:40
Программа кодирования : mkvmerge v6.3.0 ('You can't stop me!') built on Jun 28 2013 20:09:41
Библиотека кодирования : libebml v1.3.0 + libmatroska v1.4.0
Видео
Идентификатор : 1
Формат : AVC
Формат/Информация : Advanced Video Codec
Профиль формата : High@L4.1
Параметр CABAC формата : Да
Параметр ReFrames формата : 5 кадров
Идентификатор кодека : V_MPEG4/ISO/AVC
Продолжительность : 1 ч. 35 м.
Битрейт : 13,3 Мбит/сек
Ширина : 1920 пикселей
Высота : 816 пикселей
Соотношение сторон : 2,35:1
Частота кадров : 23,976 кадра/сек
Цветовое пространство : YUV
Субдискретизация насыщенности : 4:2:0
Битовая глубина : 8 бит
Тип развёртки : Прогрессивная
Бит/(Пиксели*Кадры) : 0.354
Размер потока : 8,88 Гбайт (83%)
Библиотека кодирования : x264 core 130 r2273 b3065e6
Настройки программы : cabac=1 / ref=5 / deblock=1:-3:-3 / analyse=0x3:0x113 / me=umh / subme=9 / psy=1 / psy_rd=1.10:0.00 / mixed_ref=1 / me_range=32 / chroma_me=1 / trellis=1 / 8x8dct=1 / cqm=0 / deadzone=21,11 / fast_pskip=1 / chroma_qp_offset=-2 / threads=18 / lookahead_threads=3 / sliced_threads=0 / nr=0 / decimate=1 / interlaced=0 / bluray_compat=0 / constrained_intra=0 / bframes=8 / b_pyramid=2 / b_adapt=2 / b_bias=0 / direct=3 / weightb=1 / open_gop=0 / weightp=2 / keyint=240 / keyint_min=23 / scenecut=40 / intra_refresh=0 / rc_lookahead=80 / rc=crf / mbtree=1 / crf=17.7 / qcomp=0.80 / qpmin=0 / qpmax=69 / qpstep=4 / vbv_maxrate=50000 / vbv_bufsize=50000 / crf_max=0.0 / nal_hrd=none / ip_ratio=1.30 / aq=2:0.80
Язык : English
Default : Нет
Forced : Нет
Аудио #1
Идентификатор : 2
Формат : AC-3
Формат/Информация : Audio Coding 3
Расширение режима : CM (complete main)
Идентификатор кодека : A_AC3
Продолжительность : 1 ч. 35 м.
Вид битрейта : Постоянный
Битрейт : 384 Кбит/сек
Каналы : 6 каналов
Расположение каналов : Front: L C R, Side: L R, LFE
Частота : 48,0 КГц
Битовая глубина : 16 бит
Метод сжатия : С потерями
Размер потока : 263 Мбайт (2%)
Заголовок : DD 5.1 - Dub - 384 kbps
Язык : Russian
Default : Нет
Forced : Нет
Аудио #2
Идентификатор : 3
Формат : AC-3
Формат/Информация : Audio Coding 3
Расширение режима : CM (complete main)
Идентификатор кодека : A_AC3
Продолжительность : 1 ч. 35 м.
Вид битрейта : Постоянный
Битрейт : 448 Кбит/сек
Каналы : 6 каналов
Расположение каналов : Front: L C R, Side: L R, LFE
Частота : 48,0 КГц
Битовая глубина : 16 бит
Метод сжатия : С потерями
Размер потока : 306 Мбайт (3%)
Заголовок : DD 5.1 - DVO Twix - 448 kbps
Язык : Russian
Default : Нет
Forced : Нет
Аудио #3
Идентификатор : 4
Формат : DTS
Формат/Информация : Digital Theater Systems
Идентификатор кодека : A_DTS
Продолжительность : 1 ч. 35 м.
Вид битрейта : Постоянный
Битрейт : 1510 Кбит/сек
Каналы : 6 каналов
Расположение каналов : Front: L C R, Side: L R, LFE
Частота : 48,0 КГц
Битовая глубина : 24 бит
Метод сжатия : С потерями
Размер потока : 1,01 Гбайт (9%)
Заголовок : DTS @ 1536kbps
Язык : English
Default : Нет
Forced : Нет
Текст #1
Идентификатор : 5
Формат : UTF-8
Идентификатор кодека : S_TEXT/UTF8
Идентификатор кодека/Информация : UTF-8 Plain Text
Заголовок : English Subtitlies
Язык : English
Default : Нет
Forced : Нет
Текст #2
Идентификатор : 6
Формат : UTF-8
Идентификатор кодека : S_TEXT/UTF8
Идентификатор кодека/Информация : UTF-8 Plain Text
Заголовок : Romanian Subtitles
Язык : Romanian
Default : Нет
Forced : Нет
Текст #3
Идентификатор : 7
Формат : VobSub
Режим смешивания : zlib
Идентификатор кодека : S_VOBSUB
Идентификатор кодека/Информация : The same subtitle format used on DVDs
Заголовок : English
Язык : English
Default : Нет
Forced : Нет
Текст #4
Идентификатор : 8
Формат : VobSub
Режим смешивания : zlib
Идентификатор кодека : S_VOBSUB
Идентификатор кодека/Информация : The same subtitle format used on DVDs
Заголовок : French
Язык : French
Default : Нет
Forced : Нет
Текст #5
Идентификатор : 9
Формат : VobSub
Режим смешивания : zlib
Идентификатор кодека : S_VOBSUB
Идентификатор кодека/Информация : The same subtitle format used on DVDs
Заголовок : Spanish
Язык : Spanish
Default : Нет
Forced : Нет
Текст #6
Идентификатор : 10
Формат : VobSub
Режим смешивания : zlib
Идентификатор кодека : S_VOBSUB
Идентификатор кодека/Информация : The same subtitle format used on DVDs
Заголовок : Portugese
Язык : Portuguese
Default : Нет
Forced : Нет
Меню
00:00:00.000 : en:Chapter 1
00:07:42.295 : en:Chapter 2
00:10:35.593 : en:Chapter 3
00:18:20.933 : en:Chapter 4
00:26:03.312 : en:Chapter 5
00:34:55.135 : en:Chapter 6
00:42:56.574 : en:Chapter 7
00:47:22.631 : en:Chapter 8
00:52:52.044 : en:Chapter 9
01:05:48.903 : en:Chapter 10
01:09:15.902 : en:Chapter 11
01:14:31.884 : en:Chapter 12
01:20:56.518 : en:Chapter 13
01:28:23.215 : en:Chapter 14
Скриншоты:


Время раздачи: с 10:00 до 20:00 (GMT+2) - до 15 скачавших

[Цитировать]



Показать сообщения:    

Текущее время: 10-Дек 00:21

Часовой пояс: UTC + 3


Вы не можете начинать темы
Вы не можете отвечать на сообщения
Вы не можете редактировать свои сообщения
Вы не можете удалять свои сообщения
Вы не можете голосовать в опросах
Вы не можете прикреплять файлы к сообщениям
Вы не можете скачивать файлы

!ВНИМАНИЕ!
Сайт не предоставляет электронные версии произведений, а занимается лишь коллекционированием и каталогизацией ссылок, присылаемых и публикуемых на форуме нашими читателями. Если вы являетесь правообладателем какого-либо представленного материала и не желаете, чтобы ссылка на него находилась в нашем каталоге, свяжитесь с нами, и мы незамедлительно удалим ее. Файлы для обмена на трекере предоставлены пользователями сайта, и администрация не несет ответственности за их содержание. Просьба не заливать файлы, защищенные авторскими правами, а также файлы нелегального содержания!