[ Сегодня идет свободное скачивание без начисления Download ]


Статистика раздачи
Нет
 
   
 
Top  
 
 
-Мёбиус / Mobius (2013) BDRip«Можно играть в политику, играть с деньгами, с доверием, но только не с любовью»- Русское название: Мёбиус
Оригинальное название: Mobius
Год выпуска: 2013
Производство: Франция / Бельгия / Люксембург, Recifilms, Axel Films / Les Productions du Tresor
Жанр: Триллер, Драма
Перевод: Дублированный [лицензия]
Субтитры: Вшитые отключаемые
Язык субтитров: Французский
Дата мировой премьеры: 17 февраля 2013
Дата российской премьеры: 21 марта 2013, «Парадиз»
Дата выхода DVD релиза: 2 июля 2013, «Парадиз / Активижен»
Режиссер: Эрик Рошан
Продюсер: Кристоф Сервони, Эрик Жюериан, Матиас Рубин
Актеры: Жан Дюжарден, Сесиль Де Франс, Тим Рот, Эмили Декьенн, Владимир Меньшов, Алексей Горбунов, Бранка Катич, Максим Виторган, Эрик Вьеллар, Прасанна Пуванараджа
Описание фильма:
Жестокий и хладнокровный офицер с мрачным характером и проницательным умом, тайный агент ФСБ по кличке Моисей, ведет дело крупного российского олигарха, которого подозревают в фантастических финансовых махинациях. Кажется, он уже наступил на хвост змеи, но тут в его жизнь врывается страсть. Он, никогда в жизни не знавший нежных чувств, влюбляется в Алису, работающую трейдером в банковской структуре преступного олигарха. Что будет утром, когда окончится горячая любовная ночь?

Продолжительность: 01:48:13
Качество видео: BDRip 720p
Видеокодек: MPEG-4 AVC/H.264
Битрейт видео: ~4270 Kbit/s
Размер кадра: 1280 x 536
Aудио #1: AC3, 48,0 КHz, 5.1, 384 Kbit/s - Русский
Aудио #2: DTS, 48,0 КHz, 5.1, 1510 Kbit/s - Французский

MediaInfo

Общее
Уникальный идентификатор : 217401269624797734929782743597047956876 (0xA38DF625A37E1E91A9781F1141E5458C)
Полное имя : D:\Торренты\Мёбиус.2013.BDRip.720p.mkv
Формат : Matroska
Размер файла : 4,66 Гбайт
Продолжительность : 1 ч. 48 м.
Общий поток : 6163 Кбит/сек
Дата кодирования : UTC 2013-06-20 20:24:14
Программа кодирования : mkvmerge v6.2.0 ('Promised Land')
Библиотека кодирования : libebml v1.3.0 + libmatroska v1.4.0
Видео
Идентификатор : 1
Формат : AVC
Формат/Информация : Advanced Video Codec
Профиль формата : High@L4.1
Параметр CABAC формата : Да
Параметр ReFrames формата : 5 кадров
Идентификатор кодека : V_MPEG4/ISO/AVC
Продолжительность : 1 ч. 48 м.
Битрейт : 4270 Кбит/сек
Ширина : 1280 пикс.
Высота : 536 пикс.
Соотношение сторон : 2,35:1
Частота кадров : 24,000 кадр/сек
Цветовое пространство : YUV
Подвыборка цветности : 4:2:0
Битовая глубина : 8 бит
Тип развёртки : Прогрессивная
Бит/(Пиксели*Кадры) : 0.259
Размер потока : 3,14 Гбайт (67%)
Библиотека кодирования : x264 core 133 r2334 a3ac64b
Настройки программы : cabac=1 / ref=5 / deblock=1:0:0 / analyse=0x3:0x113 / me=umh / subme=8 / psy=1 / psy_rd=1.00:0.00 / mixed_ref=1 / me_range=16 / chroma_me=1 / trellis=1 / 8x8dct=1 / cqm=0 / deadzone=21,11 / fast_pskip=1 / chroma_qp_offset=-2 / threads=12 / lookahead_threads=2 / sliced_threads=0 / nr=0 / decimate=1 / interlaced=0 / bluray_compat=0 / constrained_intra=0 / bframes=3 / b_pyramid=2 / b_adapt=2 / b_bias=0 / direct=3 / weightb=1 / open_gop=0 / weightp=2 / keyint=240 / keyint_min=24 / scenecut=40 / intra_refresh=0 / rc_lookahead=50 / rc=2pass / mbtree=1 / bitrate=4270 / ratetol=1.0 / qcomp=0.60 / qpmin=0 / qpmax=69 / qpstep=4 / cplxblur=20.0 / qblur=0.5 / ip_ratio=1.40 / aq=1:1.00
Язык : English
Аудио #1
Идентификатор : 2
Формат : AC-3
Формат/Информация : Audio Coding 3
Расширение режима : CM (complete main)
Идентификатор кодека : A_AC3
Продолжительность : 1 ч. 48 м.
Вид битрейта : Постоянный
Битрейт : 384 Кбит/сек
Каналы : 6 каналов
Расположение каналов : Front: L C R, Side: L R, LFE
Частота : 48,0 КГц
Битовая глубина : 16 бит
Метод сжатия : С потерями
Задержка видео : 14 мс.
Размер потока : 297 Мбайт (6%)
Язык : Russian
Аудио #2
Идентификатор : 3
Формат : DTS
Формат/Информация : Digital Theater Systems
Идентификатор кодека : A_DTS
Продолжительность : 1 ч. 48 м.
Вид битрейта : Постоянный
Битрейт : 1510 Кбит/сек
Каналы : 6 каналов
Расположение каналов : Front: L C R, Side: L R, LFE
Частота : 48,0 КГц
Битовая глубина : 24 бит
Метод сжатия : С потерями
Размер потока : 1,14 Гбайт (24%)
Заголовок : French DTS 1509Kbps
Язык : French
Текст
Идентификатор : 4
Формат : UTF-8
Идентификатор кодека : S_TEXT/UTF8
Идентификатор кодека/Информация : UTF-8 Plain Text
Заголовок : French forced
Язык : French
Меню
00:00:00.000 : en:00:00:00.000
00:07:23.083 : en:00:07:23.083
00:10:34.833 : en:00:10:34.833
00:13:58.667 : en:00:13:58.667
00:24:26.792 : en:00:24:26.792
00:39:36.167 : en:00:39:36.167
00:47:42.500 : en:00:47:42.500
00:55:48.417 : en:00:55:48.417
01:07:19.250 : en:01:07:19.250
01:21:07.708 : en:01:21:07.708
01:27:09.125 : en:01:27:09.125
01:43:42.792 : en:01:43:42.792
Скриншоты:
Время раздачи: 24/7 по возможности

[Цитировать]



Показать сообщения:    

Текущее время: 01-Май 10:24

Часовой пояс: UTC + 6


Вы не можете начинать темы
Вы не можете отвечать на сообщения
Вы не можете редактировать свои сообщения
Вы не можете удалять свои сообщения
Вы не можете голосовать в опросах
Вы не можете прикреплять файлы к сообщениям
Вы не можете скачивать файлы

!ВНИМАНИЕ!
Сайт не предоставляет электронные версии произведений, а занимается лишь коллекционированием и каталогизацией ссылок, присылаемых и публикуемых на форуме нашими читателями. Если вы являетесь правообладателем какого-либо представленного материала и не желаете, чтобы ссылка на него находилась в нашем каталоге, свяжитесь с нами, и мы незамедлительно удалим ее. Файлы для обмена на трекере предоставлены пользователями сайта, и администрация не несет ответственности за их содержание. Просьба не заливать файлы, защищенные авторскими правами, а также файлы нелегального содержания!