[ Сегодня идет свободное скачивание без начисления Download ]


Статистика раздачи
Нет
 
   
 
Top  
 
 
-Стукач / Snitch (2013) BDRip- Русское название: Стукач
Оригинальное название: Snitch
Год выпуска: 2013
Производство: США, ОАЭ - Summit Entertainment, Exclusive Media Group, Participant Media
Жанр: Триллер, Драма
Перевод: Дублированный |лицензия|
Субтитры: Вшитые отключаемые
Язык субтитров: Русский, английский, португальский, испанский
Режиссер: Рик Роман Во / Ric Roman Waugh
Продюсер: Тобин Армруст, Александр Ив Бруннер, Гай Ист
Актеры: Дуэйн Джонсон, Барри Пеппер, Джон Бернтал, Сьюзен Сарандон, Майкл К. Уильямс, Рафи Гаврон, Мелина Канакаредес, Надин Веласкес, Бенджамин Брэтт, Лела Лорен ...
Описание фильма:
Ради спасения сына, которому грозит срок за продажу наркотиков, отец идет на сделку с полицией. Он должен внедриться в самое сердце наркомафии.

Дата мировой премьеры: 21 февраля 2013
Дата российской премьеры: 21 февраля 2013, «Парадиз»
Дата выхода DVD релиза: 4 июня 2013, «Парадиз / Активижен»
Продолжительность: 01:51:52
Качество видео: BDRip 1080p
Видеокодек: MPEG-4 AVC/H.264
Видео: 9850 Кбит/сек, 1920x800, 23.976 кадр/с
Аудио #1: Русский: DTS, 1536 кбит/c, 5.1, 48 kHz, 16 bit - дублированный
Аудио #2: Русский: AC3, 384 кбит/c, 5.1, 48 kHz, 16 bit - дублированный
Аудио #3: Английский: DTS, 1536 кбит/c, 5.1, 48 kHz, 24 bit
Сохранены оригинальные чаптеры как на Blu-Ray

Рецензия, отзыв о фильме:

На что ты готов пойти ради семьи?
Вот ведь сила маркетинга. Стоит в рекламе указать, что фильм снят по реально происходившим событиям, как тут же люди толпами рвутся покупать билеты в кинотеатрах, чуть ли не устраивая драки за последние места. Но с этим фильмом на удивление все прошло спокойно, как тихий, семейный ужин.
Сюжет картины прост и действительно имеет место быть в реальной жизни. Простая история, обычного предпринимателя, который решает вытащить незаконно обвиненного сына из тюрьмы.
Режиссер создал динамично развивающуюся картину, которая к финалу достигла своего апогея. Этакая красивая сказка, без лишних кровопотерь, перестрелок и драк. Хороший, держащий в напряжении боевик, удачно вписавшийся в сезон экшен фильмов.
Дуэйн Джонсон обладает феноменальной харизмой и энергетикой. Многие кто застал его в рестленге, знают, что он умеет заводить зрителей. Но вовремя уйдя со «сцены», он подался в кинобизнес. Поначалу у него это не получалось и все шло из рук вон плохо, но позже он ретировался и сумел выбиться в дамки. Он не фильтрует фильмы, работает как проклятый, снимаясь во всяких второсортных картинах, но и успешные работы у него тоже имеются. Один из последних фильмов с его участием это «Форсаж», который в пятой части сумел подняться с колен и показать внушительный кассовый результат. Сложно сказать, какое именно у него амплуа. Снявшись во всевозможных жанрах, он так и не остановился на чем-то одном, хоть и отдал предпочтение боевикам. Актер разноплановый, перспективный, но еще не до конца раскрывшийся в этом бизнесе. На данном этапе, это молодой, спортивный парень, который умеет возрождать проекты ранее не пользующиеся популярностью, иногда это получается хорошо, иногда плохо. В данном фильме, он показал себя с лучшей стороны, продемонстрировав нам, что на одном каменной лице сыт не будешь.
Картина приятно удивила, не только простым сюжетом и его последующим развитием, но и хорошим, гармоничным актерским составом. Легкая история, которая затягивает и не отпускает до самого победного конца. Конечно это одноразовая картина, которая годится лишь для расслабления, но её не грех порекомендовать друзьям и даже самому посмотреть по телевизору в обозримом будущем.
8 из 10

MediaInfo:

Общее
Уникальный идентификатор : 170783430913253038189588708681235357577 (0x807BB13E82FC54ABB500C52BD2CCDF89)
Полное имя : D:\Video\Snitch.2013.BDRip.1080p.dts.Rus.Eng.mkv
Формат : Matroska
Версия формата : Version 2
Размер файла : 10,4 Гбайт
Продолжительность : 1 ч. 51 м.
Общий поток : 13,3 Мбит/сек
Название фильма : Release from VarMkn
Дата кодирования : UTC 2013-06-15 16:16:24
Программа кодирования : mkvmerge v5.4.0 ('Piper') built on Mar 10 2012 13:34:39
Библиотека кодирования : libebml v1.2.3 + libmatroska v1.3.0
Видео
Идентификатор : 1
Формат : AVC
Формат/Информация : Advanced Video Codec
Профиль формата : High@L4.1
Параметр CABAC формата : Да
Параметр ReFrames формата : 5 кадров
Идентификатор кодека : V_MPEG4/ISO/AVC
Продолжительность : 1 ч. 51 м.
Битрейт : 9850 Кбит/сек
Ширина : 1920 пикселей
Высота : 800 пикселей
Соотношение сторон : 2,40:1
Частота кадров : 23,976 кадра/сек
Цветовое пространство : YUV
Субдискретизация насыщенности : 4:2:0
Битовая глубина : 8 бит
Тип развёртки : Прогрессивная
Бит/(Пиксели*Кадры) : 0.267
Размер потока : 7,49 Гбайт (72%)
Заголовок : Snitch.2013.1080p.BluRay.DTS.x264-HDMaNiAcS
Библиотека кодирования : x264 core 132 r2310 76a5c3a
Настройки программы : cabac=1 / ref=5 / deblock=1:-3:-3 / analyse=0x3:0x133 / me=tesa / subme=11 / psy=1 / psy_rd=1.05:0.00 / mixed_ref=1 / me_range=24 / chroma_me=1 / trellis=2 / 8x8dct=1 / cqm=0 / deadzone=21,11 / fast_pskip=1 / chroma_qp_offset=-2 / threads=12 / lookahead_threads=2 / sliced_threads=0 / nr=0 / decimate=1 / interlaced=0 / bluray_compat=0 / constrained_intra=0 / bframes=8 / b_pyramid=2 / b_adapt=2 / b_bias=0 / direct=3 / weightb=1 / open_gop=0 / weightp=2 / keyint=240 / keyint_min=23 / scenecut=40 / intra_refresh=0 / rc=2pass / mbtree=0 / bitrate=9850 / ratetol=1.0 / qcomp=0.60 / qpmin=10 / qpmax=69 / qpstep=4 / cplxblur=20.0 / qblur=0.5 / ip_ratio=1.40 / pb_ratio=1.30 / aq=2:0.75
Язык : English
Default : Нет
Forced : Нет
Аудио #1
Идентификатор : 2
Формат : DTS
Формат/Информация : Digital Theater Systems
Идентификатор кодека : A_DTS
Продолжительность : 1 ч. 51 м.
Вид битрейта : Постоянный
Битрейт : 1510 Кбит/сек
Каналы : 6 каналов
Расположение каналов : Front: L C R, Side: L R, LFE
Частота : 48,0 КГц
Битовая глубина : 16 бит
Метод сжатия : С потерями
Размер потока : 1,18 Гбайт (11%)
Заголовок : DTS @1536 - DD 5.1 - Dub
Язык : Russian
Default : Нет
Forced : Нет
Аудио #2
Идентификатор : 3
Формат : AC-3
Формат/Информация : Audio Coding 3
Расширение режима : CM (complete main)
Идентификатор кодека : A_AC3
Продолжительность : 1 ч. 51 м.
Вид битрейта : Постоянный
Битрейт : 384 Кбит/сек
Каналы : 6 каналов
Расположение каналов : Front: L C R, Side: L R, LFE
Частота : 48,0 КГц
Битовая глубина : 16 бит
Метод сжатия : С потерями
Размер потока : 307 Мбайт (3%)
Заголовок : AC3 @448 - DD 5.1 - Dub
Язык : Russian
Default : Нет
Forced : Нет
Аудио #3
Идентификатор : 4
Формат : DTS
Формат/Информация : Digital Theater Systems
Идентификатор кодека : A_DTS
Продолжительность : 1 ч. 51 м.
Вид битрейта : Постоянный
Битрейт : 1510 Кбит/сек
Каналы : 6 каналов
Расположение каналов : Front: L C R, Side: L R, LFE
Частота : 48,0 КГц
Битовая глубина : 24 бит
Метод сжатия : С потерями
Задержка видео : 11 мс.
Размер потока : 1,18 Гбайт (11%)
Заголовок : DTS @1536 - DD 5.1 - Original
Язык : English
Default : Нет
Forced : Нет
Текст #1
Идентификатор : 5
Формат : UTF-8
Идентификатор кодека : S_TEXT/UTF8
Идентификатор кодека/Информация : UTF-8 Plain Text
Заголовок : Russian (Full)
Язык : Russian
Default : Нет
Forced : Нет
Текст #2
Идентификатор : 6
Формат : UTF-8
Идентификатор кодека : S_TEXT/UTF8
Идентификатор кодека/Информация : UTF-8 Plain Text
Заголовок : English (Full)
Язык : English
Default : Нет
Forced : Нет
Текст #3
Идентификатор : 7
Формат : UTF-8
Идентификатор кодека : S_TEXT/UTF8
Идентификатор кодека/Информация : UTF-8 Plain Text
Заголовок : Portuguese (Full)
Язык : Portuguese
Default : Нет
Forced : Нет
Текст #4
Идентификатор : 8
Формат : UTF-8
Идентификатор кодека : S_TEXT/UTF8
Идентификатор кодека/Информация : UTF-8 Plain Text
Заголовок : Spanish (Full)
Язык : Spanish
Default : Нет
Forced : Нет
Меню
00:00:00.000 : en:00:00:00.000
00:06:18.086 : en:00:06:18.086
00:14:02.717 : en:00:14:02.717
00:21:29.747 : en:00:21:29.747
00:29:44.700 : en:00:29:44.700
00:34:28.984 : en:00:34:28.984
00:42:36.179 : en:00:42:36.179
00:49:18.831 : en:00:49:18.831
00:56:31.638 : en:00:56:31.638
01:00:53.108 : en:01:00:53.108
01:10:01.572 : en:01:10:01.572
01:18:55.272 : en:01:18:55.272
01:24:05.374 : en:01:24:05.374
01:31:21.559 : en:01:31:21.559
01:38:40.540 : en:01:38:40.540
01:45:56.600 : en:01:45:56.600
Скриншоты:
Время раздачи: с 10:00 до 20:00 (GMT+2) - до 15 скачавшихНе забываем говорить

[Цитировать]



Показать сообщения:    

Текущее время: 08-Дек 07:04

Часовой пояс: UTC + 3


Вы не можете начинать темы
Вы не можете отвечать на сообщения
Вы не можете редактировать свои сообщения
Вы не можете удалять свои сообщения
Вы не можете голосовать в опросах
Вы не можете прикреплять файлы к сообщениям
Вы не можете скачивать файлы

!ВНИМАНИЕ!
Сайт не предоставляет электронные версии произведений, а занимается лишь коллекционированием и каталогизацией ссылок, присылаемых и публикуемых на форуме нашими читателями. Если вы являетесь правообладателем какого-либо представленного материала и не желаете, чтобы ссылка на него находилась в нашем каталоге, свяжитесь с нами, и мы незамедлительно удалим ее. Файлы для обмена на трекере предоставлены пользователями сайта, и администрация не несет ответственности за их содержание. Просьба не заливать файлы, защищенные авторскими правами, а также файлы нелегального содержания!