[ Сегодня идет свободное скачивание без начисления Download ]


Статистика раздачи
Нет
 
   
 
Top  
 
 
G.I. Joe: Бросок кобры 2 / G.I. Joe: Retaliation
[Расширенная версия / Extended Cut]
Страна: США
Жанр: фантастика, боевик, триллер, приключения
Год выпуска: 2013
Продолжительность: 02:03:00 час.
Перевод: Профессиональный (полное дублирование) - Line
Субтитры: Английские, Русские (форс.)
Формат субтитров: softsub (SRT)
Оригинальная аудиодорожка: английский
Режиссер: Джон М. Чу
В ролях: Дуэйн Джонсон, Эдрианн Палики, Брюс Уиллис, Рэй Парк, Ли Бён Хон, Ди Джей Котрона, Джонатан Прайс, Элоди Юнг, Ченнинг Татум, Люк Брейси, Рэй Стивенсон, Уолтон Гоггинс, Арнольд Вослу, Джозеф Маццелло, Ник Эриксон, RZA, Наим Альхерими, Рави Найду, Мэтт Джералд, Дуглас М. Гриффин, Джо Крест, Джеймс Карвилл, Райан Хансен, ДеРэй Дэвис, Нэйтан Такасигэ
Описание: Во второй части отряд «G.I. Joe» вновь объявит вызов группировке «Кобра» и вступит в противостояние с правительством…
Доп. информация: EXTENDED версия длиннее театральной на ~15 минут. Расширенные сцены переведены русскими субтитрами.

Автор рипа:
Качество: BDRip-AVC => Сэмпл | исх. G I Joe Retaliation 2013 EXTENDED 1080p BluRay AVC TrueHD 7 1 WiHD [PublicHD]
Формат: MKV
Видео кодек: H.264
Аудио кодек: AC3
Видео: 1152x480 (2.40:1), 23,976 fps, H.264 ~4 190 kbps avg, 0.316 bit/pixel
Аудио 1: 48 kHz, AC3, 3/2 (L,C,R,l,r) + LFE ch, ~448.00 kbps avg | Профессиональный (полное дублирование) - Line
Аудио 2: 48 kHz, AC3, 3/2 (L,C,R,l,r) + LFE ch, ~448.00 kbps avg | Оригинал (английский)
Премьера (мир) - 27 марта 2013
Премьера (РФ) - 28 марта 2013, «Централ Партнершип»

MediaInfo | Log x264

Log x264

avs [info]: 1152x480p 1:1 @ 2500000/104271 fps (cfr)
x264 [info]: using SAR=1/1
x264 [info]: using cpu capabilities: MMX2 SSE2Fast SSSE3 FastShuffle SSE4.2 AVX
x264 [info]: profile High, level 4.1
x264 [info]: frame I:1658 Avg QP:17.76 size:102329
x264 [info]: frame P:41251 Avg QP:19.59 size: 40372
x264 [info]: frame B:134042 Avg QP:22.22 size: 15126
x264 [info]: consecutive B-frames: 3.6% 4.3% 9.4% 18.0% 19.2% 33.9% 6.2% 1.2% 1.4% 0.9% 0.7% 0.4% 0.4% 0.7%
x264 [info]: mb I I16..4: 20.6% 53.0% 26.4%
x264 [info]: mb P I16..4: 1.4% 15.4% 2.4% P16..4: 25.1% 31.2% 12.0% 3.5% 0.5% skip: 8.4%
x264 [info]: mb B I16..4: 0.1% 2.9% 0.2% B16..8: 36.5% 18.8% 3.5% direct: 6.3% skip:31.6% L0:42.3% L1:43.8% BI:13.9%
x264 [info]: 8x8 transform intra:79.7% inter:57.6%
x264 [info]: direct mvs spatial:97.2% temporal:2.8%
x264 [info]: coded y,uvDC,uvAC intra: 92.6% 89.8% 74.0% inter: 31.0% 29.1% 10.0%
x264 [info]: i16 v,h,dc,p: 20% 13% 17% 49%
x264 [info]: i8 v,h,dc,ddl,ddr,vr,hd,vl,hu: 7% 8% 9% 10% 14% 13% 14% 11% 14%
x264 [info]: i4 v,h,dc,ddl,ddr,vr,hd,vl,hu: 8% 9% 6% 10% 15% 13% 14% 11% 14%
x264 [info]: i8c dc,h,v,p: 46% 20% 15% 20%
x264 [info]: Weighted P-Frames: Y:4.4% UV:2.3%
x264 [info]: ref P L0: 46.6% 10.7% 19.2% 6.4% 5.5% 3.5% 3.3% 1.6% 1.6% 1.3% 0.3% 0.0%
x264 [info]: ref B L0: 74.4% 12.1% 5.5% 2.7% 2.0% 1.6% 1.2% 0.5% 0.2%
x264 [info]: ref B L1: 92.4% 7.6%
x264 [info]: kb/s:4186.88
x264 [total]: encoded 176951 frames, 2.70 fps, 4186.88 kb/s
Общее
Уникальный идентификатор : 238648393062296957668037044432456864495 (0xB38A02361732847AA8A8857FAA8F52EF)
Полное имя : D:\\[email protected]_^--\\фильмы\\My Rips\\G.I.Joe.Brosok.Kobry.2.2013.Extended.Cut.BDRip-AVC.Dub.Org.Subs.by.zOJIOtOi.mkv
Формат : Matroska
Версия формата : Version 2
Размер файла : 4,37 Гбайт
Продолжительность : 2 ч. 3 м.
Общий поток : 5085 Кбит/сек
Дата кодирования : UTC 2013-07-14 14:10:54
Программа кодирования : mkvmerge v5.8.0 (\'No Sleep / Pillow\') built on Sep 2 2012 15:37:04
Библиотека кодирования : libebml v1.2.3 + libmatroska v1.3.0
Видео
Идентификатор : 1
Формат : AVC
Формат/Информация : Advanced Video Codec
Профиль формата : [email protected]
Параметр CABAC формата : Да
Параметр ReFrames формата : 10 кадров
Идентификатор кодека : V_MPEG4/ISO/AVC
Продолжительность : 2 ч. 3 м.
Битрейт : 4190 Кбит/сек
Ширина : 1152 пикселя
Высота : 480 пикселей
Соотношение сторон : 2,40:1
Режим частоты кадров : Постоянный
Частота кадров : 23,976 кадра/сек
Цветовое пространство : YUV
Субдискретизация насыщенности : 4:2:0
Битовая глубина : 8 бит
Тип развёртки : Прогрессивная
Бит/(Пиксели*Кадры) : 0.316
Размер потока : 3,51 Гбайт (80%)
Заголовок : G.I.Joe.Brosok.Kobry.2.2013.Extended.Cut.BDRip-AVC.by.zOJIOtOi
Библиотека кодирования : x264 core 125 r2208 d9d2288
Настройки программы : cabac=1 / ref=10 / deblock=1:-3:-3 / analyse=0x3:0x133 / me=umh / subme=11 / psy=1 / psy_rd=1.00:0.15 / mixed_ref=1 / me_range=48 / chroma_me=1 / trellis=2 / 8x8dct=1 / cqm=0 / deadzone=21,11 / fast_pskip=1 / chroma_qp_offset=-3 / threads=6 / lookahead_threads=1 / sliced_threads=0 / nr=0 / decimate=1 / interlaced=0 / bluray_compat=0 / constrained_intra=0 / bframes=13 / b_pyramid=2 / b_adapt=2 / b_bias=0 / direct=3 / weightb=1 / open_gop=0 / weightp=2 / keyint=250 / keyint_min=23 / scenecut=40 / intra_refresh=0 / rc_lookahead=120 / rc=2pass / mbtree=1 / bitrate=4190 / ratetol=1.0 / qcomp=0.60 / qpmin=0 / qpmax=69 / qpstep=4 / cplxblur=20.0 / qblur=0.5 / vbv_maxrate=50000 / vbv_bufsize=62500 / nal_hrd=none / ip_ratio=1.40 / aq=2:1.00
Язык : English
Default : Да
Forced : Нет
Аудио #1
Идентификатор : 2
Формат : AC-3
Формат/Информация : Audio Coding 3
Расширение режима : CM (complete main)
Параметр Endianness формата : Big
Идентификатор кодека : A_AC3
Продолжительность : 2 ч. 3 м.
Вид битрейта : Постоянный
Битрейт : 448 Кбит/сек
Каналы : 6 каналов
Расположение каналов : Front: L C R, Side: L R, LFE
Частота : 48,0 КГц
Битовая глубина : 16 бит
Метод сжатия : С потерями
Размер потока : 394 Мбайт (9%)
Заголовок : Dub (Line)
Язык : Russian
Default : Да
Forced : Да
Аудио #2
Идентификатор : 3
Формат : AC-3
Формат/Информация : Audio Coding 3
Расширение режима : CM (complete main)
Параметр Endianness формата : Big
Идентификатор кодека : A_AC3
Продолжительность : 2 ч. 3 м.
Вид битрейта : Постоянный
Битрейт : 448 Кбит/сек
Каналы : 6 каналов
Расположение каналов : Front: L C R, Side: L R, LFE
Частота : 48,0 КГц
Битовая глубина : 16 бит
Метод сжатия : С потерями
Размер потока : 394 Мбайт (9%)
Заголовок : Original
Язык : English
Default : Нет
Forced : Нет
Текст #1
Идентификатор : 4
Формат : UTF-8
Идентификатор кодека : S_TEXT/UTF8
Идентификатор кодека/Информация : UTF-8 Plain Text
Заголовок : Russian (Forced)
Язык : Russian
Default : Да
Forced : Да
Текст #2
Идентификатор : 5
Формат : UTF-8
Идентификатор кодека : S_TEXT/UTF8
Идентификатор кодека/Информация : UTF-8 Plain Text
Заголовок : English
Язык : English
Default : Нет
Forced : Нет

Скриншоты

Скриншот с названием фильма

[Цитировать]



Показать сообщения:    

Текущее время: 05-Дек 07:30

Часовой пояс: UTC + 3


Вы не можете начинать темы
Вы не можете отвечать на сообщения
Вы не можете редактировать свои сообщения
Вы не можете удалять свои сообщения
Вы не можете голосовать в опросах
Вы не можете прикреплять файлы к сообщениям
Вы не можете скачивать файлы

!ВНИМАНИЕ!
Сайт не предоставляет электронные версии произведений, а занимается лишь коллекционированием и каталогизацией ссылок, присылаемых и публикуемых на форуме нашими читателями. Если вы являетесь правообладателем какого-либо представленного материала и не желаете, чтобы ссылка на него находилась в нашем каталоге, свяжитесь с нами, и мы незамедлительно удалим ее. Файлы для обмена на трекере предоставлены пользователями сайта, и администрация не несет ответственности за их содержание. Просьба не заливать файлы, защищенные авторскими правами, а также файлы нелегального содержания!